Ты супер! Танцы 03 выпуск HTB-HD 2017.09.16 [2017, ТВ-Шоу, HDTV, 1080i]

Ответить на тему
Статистика раздачи [Обновить пиров]
Размер:  11.65 GB   |    Зарегистрирован:  4 месяца 2 дня   |    Скачан:  0 раз

Полного источника не было: 2 месяца 7 дней

 
   
 
 
 
Автор Сообщение

jinwg81.com

Создавать темы 18-Сен-2017 19:33

[Цитировать]

Ты супер! Танцы 03 выпуск HTB-HD 2017.09.16
Дата/Год выхода: 2017
Страна: Россия
Жанр: ТВ-Шоу
Продолжительность: 02:11:00
Перевод: Не требуется
Телеканал: HTB-HD
Описание: Проект «Ты супер! Танцы», который, поможет изменить к лучшему жизнь детей, оставшихся без попечения родителей. Детей, которые увлекаются танцами. Участие в проекте — это шанс заявить о себе на широкую аудиторию, возможность поработать с лучшими педагогами страны, получить незабываемые впечатления, завести новых друзей и познакомиться со своими кумирами.
Жюри: Егор Дружинин, Кристина Кретова, Евгений Папунаишвили, Анастасия Заворотнюк
Ведущий: Александр Олешко
Качество: HDTV
Разрешение видео/развертка: 1080i
Формат файла: TS
Видео кодек: H.264
Аудио кодек: MP2
Видео: H264; 1920x1080 (16:9); 25.000 fps; ~11.9 Mb/s
Аудио: MPEG Audio 48000Hz stereo 192 Кбит/сек

MediaInfo

GeneralID : 1 (0x1)Complete name : I:\НТВ-HD\Ты супер! Танцы 03 выпуск HTB-HD 2017.09.16.tsFormat : MPEG-TSFile size : 11.6 GiBDuration : 2 h 11 minOverall bit rate mode : VariableOverall bit rate : 12.7 Mb/s
VideoID : 2104 (0x838)Menu ID : 104 (0x68)Format : AVCFormat/Info : Advanced Video CodecFormat profile : [email protected] settings, CABAC : YesFormat settings, ReFrames : 4 framesCodec ID : 27Duration : 2 h 11 minBit rate : 11.9 Mb/sWidth : 1 920 pixelsHeight : 1 080 pixelsDisplay aspect ratio : 16:9Frame rate : 25.000 FPSStandard : ComponentColor space : YUVChroma subsampling : 4:2:0Bit depth : 8 bitsScan type : InterlacedScan type, store method : Separated fieldsScan order : Top Field FirstBits/(Pixel*Frame) : 0.229Stream size : 10.9 GiB (94%)Color range : LimitedColor primaries : BT.709Transfer characteristics : BT.709Matrix coefficients : BT.709
AudioID : 3104 (0xC20)Menu ID : 104 (0x68)Format : MPEG AudioFormat version : Version 1Format profile : Layer 2Codec ID : 3Duration : 2 h 11 minBit rate mode : ConstantBit rate : 192 kb/sChannel(s) : 2 channelsSampling rate : 48.0 kHzCompression mode : LossyStream size : 180 MiB (2%)Language : Russian

Скриншоты



[jinwg81.com]_t_5454157.torrent
Торрент: Зарегистрирован ·  [ 2017-09-18 19:30 ] ·  1256f846b7f759a783f8002f7aa5dd675edfe366

59 KB

Статус: проверено
Скачан: 0 раз
Размер: 11.65 GB
Оценка: 
(Голосов: 0)
Сказали спасибо: 0  Спасибо
Похожие темы
[Профиль]    [ЛС]
Показать сообщения:    
Ответить на тему

Текущее время: Сегодня 03:47

Часовой пояс: GMT + 7



Вы не можете начинать темы
Вы не можете отвечать на сообщения
Вы не можете редактировать свои сообщения
Вы не можете удалять свои сообщения
Вы не можете голосовать в опросах
Вы не можете прикреплять файлы к сообщениям
Вы можете скачивать файлы