Ты супер! Танцы 01-02 выпуск HTB-HD 2017.09.02 [2017, ТВ-Шоу, HDTVRip, 720p]

Ответить на тему
Статистика раздачи [Обновить пиров]
Размер:  7.59 GB   |    Зарегистрирован:  4 месяца 4 дня   |    Скачан:  0 раз

Полного источника не было: Никогда

 
   
 
 
 
Автор Сообщение

jinwg81.com

Создавать темы 18-Сен-2017 19:33

[Цитировать]

Ты супер! Танцы 01-02 выпуск HTB-HD 2017.09.02
Дата/Год выхода: 2017
Страна: Россия
Жанр: ТВ-Шоу
Продолжительность: 02:13:00
Перевод: Не требуется
Телеканал: HTB-HD
Описание: Проект «Ты супер! Танцы», который, поможет изменить к лучшему жизнь детей, оставшихся без попечения родителей. Детей, которые увлекаются танцами. Участие в проекте — это шанс заявить о себе на широкую аудиторию, возможность поработать с лучшими педагогами страны, получить незабываемые впечатления, завести новых друзей и познакомиться со своими кумирами.
Жюри: Егор Дружинин, Кристина Кретова, Евгений Папунаишвили, Анастасия Заворотнюк
Ведущий: Александр Олешко
Качество: HDTVRip
Разрешение видео/развертка: 720p
Формат файла: mkv
Видео кодек: H.264
Аудио кодек: AC3
Видео: H264; 1280x720 (16:9); 25.000 fps; ~3 900 kb/s
Аудио: AC3, 2 channels, 48000Hz, 192 Кбит/сек

MediaInfo

GeneralUnique ID : 238453581286713582835150773842629962925 (0xB3647D3FCADEEB25924897EBC74D2CAD)Complete name : I:\111\Ты супер! Танцы HTB-HD 2017.HDTVRip.720p\Ты супер! Танцы 01 выпуск HTB-HD 2017.09.02_HDTVRip.720p_kuzmichm2196.mkvFormat : MatroskaFormat version : Version 2File size : 3.81 GiBDuration : 2 h 13 minOverall bit rate : 4 094 kb/sEncoded date : UTC 2017-09-04 02:56:31Writing application : mkvmerge v3.4.0 ('Rapunzel') сборка от May 15 2010 09:38:20Writing library : libebml v0.8.0 + libmatroska v0.9.0
VideoID : 1Format : AVCFormat/Info : Advanced Video CodecFormat profile : [email protected] settings, CABAC : YesFormat settings, ReFrames : 4 framesCodec ID : V_MPEG4/ISO/AVCDuration : 2 h 13 minBit rate : 3 900 kb/sWidth : 1 280 pixelsHeight : 720 pixelsDisplay aspect ratio : 16:9Frame rate mode : ConstantFrame rate : 25.000 FPSColor space : YUVChroma subsampling : 4:2:0Bit depth : 8 bitsScan type : ProgressiveBits/(Pixel*Frame) : 0.169Stream size : 3.55 GiB (93%)Writing library : x264 core 146 r2538 121396cEncoding settings : cabac=1 / ref=3 / deblock=1:-1:-1 / analyse=0x3:0x113 / me=umh / subme=9 / psy=1 / psy_rd=1.00:0.15 / mixed_ref=1 / me_range=32 / chroma_me=1 / trellis=1 / 8x8dct=1 / cqm=0 / deadzone=21,11 / fast_pskip=1 / chroma_qp_offset=-3 / threads=6 / lookahead_threads=1 / sliced_threads=0 / nr=0 / decimate=1 / interlaced=0 / bluray_compat=0 / constrained_intra=0 / bframes=6 / b_pyramid=2 / b_adapt=1 / b_bias=0 / direct=3 / weightb=1 / open_gop=0 / weightp=2 / keyint=250 / keyint_min=25 / scenecut=40 / intra_refresh=0 / rc_lookahead=40 / rc=2pass / mbtree=1 / bitrate=3900 / ratetol=1.0 / qcomp=0.60 / qpmin=0 / qpmax=69 / qpstep=4 / cplxblur=20.0 / qblur=0.5 / ip_ratio=1.40 / aq=1:1.00Default : YesForced : No
AudioID : 2Format : AC-3Format/Info : Audio Coding 3Mode extension : CM (complete main)Format settings, Endianness : BigCodec ID : A_AC3Duration : 2 h 13 minBit rate mode : ConstantBit rate : 192 kb/sChannel(s) : 2 channelsChannel positions : Front: L RSampling rate : 48.0 kHzFrame rate : 31.250 FPS (1536 spf)Bit depth : 16 bitsCompression mode : LossyStream size : 183 MiB (5%)Default : YesForced : No

Скриншоты





[jinwg81.com]_t_5448960.torrent
Торрент: Зарегистрирован ·  [ 2017-09-18 19:30 ] ·  ce075f0ee14f6cd54c26f27edf70286b35f103bf

39 KB

Статус: проверено
Скачан: 0 раз
Размер: 7.59 GB
Оценка: 
(Голосов: 0)
Сказали спасибо: 0  Спасибо
Похожие темы
[Профиль]    [ЛС]
Показать сообщения:    
Ответить на тему

Текущее время: Сегодня 17:11

Часовой пояс: GMT + 7



Вы не можете начинать темы
Вы не можете отвечать на сообщения
Вы не можете редактировать свои сообщения
Вы не можете удалять свои сообщения
Вы не можете голосовать в опросах
Вы не можете прикреплять файлы к сообщениям
Вы можете скачивать файлы