Freedom Ballet. Жизнь как танец (Елена Коляденко) [2017, танцевальное шоу, DVB]

Ответить на тему
Статистика раздачи [Обновить пиров]
Размер:  3.34 GB   |    Зарегистрирован:  20 дней   |    Скачан:  0 раз

Полного источника не было: 16 дней

Личеров:  1  [  0 KB/s  ]   Подробная статистика скачивающих
 
   
 
 
 
Автор Сообщение

jinwg81.com

Создавать темы 31-Дек-2017 21:56

[Цитировать]

Freedom Ballet. Жизнь как танец
Дата/Год выхода: 2017
Страна: Украина
Жанр: танцевальное шоу
Продолжительность: 01:56:29
Перевод: Не требуется
Русские субтитры: нет
Оригинальная аудиодорожка: русский
Режиссер: Елена Коляденко
Телеканал: IнтерОписание: Телевизионная премьера праздничного концерта шоу-балета Freedom. Один из самых ярких, талантливых и профессиональных танцевальных коллективов Украины празднует свой 15-летний юбилей грандиозным шоу с участием топовых звезд. Вместе с артистами балета на сцене Дворца "Украина" выступят: Ани Лорак, Ирина Билык, Наталья Могилевская, Вера Брежнева, Оля Полякова, Злата Огневич, Макс Барских, Alekseev, группа Kadnay. Подарком для зрителей станут пять "музыкальных историй" латвийской примадонны Лаймы Вайкуле, прожитых с Freedom-ballet за долгие годы дружбы и сотрудничества. Каждый номер грандиозного шоу основатель и руководитель балета Елена Коляденко продумала до мелочей. Каждая танцевальная постановка - отдельная история, которая будет рождаться... в шкафу высотой с 4-этажный дом! Шкаф - символическое место, где не просто хранятся вещи, а живут многие секреты и "скелеты-откровения" из жизни людей.Сэмпл: http://sendfile.su/1387021
качество: DVB
формат: TS/M2TS
Видео: MPEG2 Video 704x576 (16:9) 3 703kbps 25fps
Аудио: MPEG Audio 192kbps 48kHz 2ch

MediaInfo

GeneralID : 1 (0x1)Complete name : F:\Мои раздачи\Музыка\Freedom Ballet. Жизнь как танец.tsFormat : MPEG-TSFile size : 3.34 GiBDuration : 1 h 56 minOverall bit rate mode : VariableOverall bit rate : 4 100 kb/s
VideoID : 7311 (0x1C8F)Menu ID : 1 (0x1)Format : MPEG VideoFormat version : Version 2Format profile : [email protected] settings, BVOP : YesFormat settings, Matrix : CustomFormat settings, GOP : VariableCodec ID : 2Duration : 1 h 56 minBit rate mode : VariableBit rate : 3 703 kb/sMaximum bit rate : 15.0 Mb/sWidth : 704 pixelsHeight : 576 pixelsDisplay aspect ratio : 16:9Frame rate : 25.000 FPSStandard : PALColor space : YUVChroma subsampling : 4:2:0Bit depth : 8 bitsScan type : InterlacedScan order : Top Field FirstCompression mode : LossyBits/(Pixel*Frame) : 0.365Time code of first frame : 00:00:00:00Time code source : Group of pictures headerGOP, Open/Closed : OpenStream size : 3.01 GiB (90%)
AudioID : 7312 (0x1C90)Menu ID : 1 (0x1)Format : MPEG AudioFormat version : Version 1Format profile : Layer 2Codec ID : 3Duration : 1 h 56 minBit rate mode : ConstantBit rate : 192 kb/sChannel(s) : 2 channelsSampling rate : 48.0 kHzCompression mode : LossyDelay relative to video : 15 msStream size : 160 MiB (5%)Language : Ukrainian
OtherID : 7314 (0x1C92)-800Menu ID : 1 (0x1)Format : TeletextLanguage : Ukrainian

Анаморфированные скриншоты



[jinwg81.com]_t_5498178.torrent
Торрент: Зарегистрирован ·  [ 2017-12-31 21:54 ] ·  0726ad2a66f033ec902eb4527edcb0f2d416dbfb

17 KB

Статус: проверено
Скачан: 0 раз
Размер: 3.34 GB
Оценка: 
(Голосов: 0)
Сказали спасибо: 0  Спасибо
Похожие темы
[Профиль]    [ЛС]
Показать сообщения:    
Ответить на тему

Текущее время: Сегодня 03:48

Часовой пояс: GMT + 7



Вы не можете начинать темы
Вы не можете отвечать на сообщения
Вы не можете редактировать свои сообщения
Вы не можете удалять свои сообщения
Вы не можете голосовать в опросах
Вы не можете прикреплять файлы к сообщениям
Вы можете скачивать файлы