Ты супер! Танцы 15 выпуск HTB-HD 2017.12.16 [2017, ТВ-Шоу, HDTV, 1080i]

Ответить на тему
Статистика раздачи [Обновить пиров]
Размер:  7.72 GB   |    Зарегистрирован:  22 дня   |    Скачан:  1 раз

Полного источника не было: 14 дней

 
   
 
 
 
Автор Сообщение

jinwg81.com

Создавать темы 31-Дек-2017 21:56

[Цитировать]

Ты супер! Танцы 15 выпуск HTB-HD 2017.12.16
Дата/Год выхода: 2017
Страна: Россия
Жанр: ТВ-Шоу
Продолжительность: 02:00:00
Перевод: Не требуется
Телеканал: HTB-HD
Описание: Проект «Ты супер! Танцы», который, поможет изменить к лучшему жизнь детей, оставшихся без попечения родителей. Детей, которые увлекаются танцами. Участие в проекте — это шанс заявить о себе на широкую аудиторию, возможность поработать с лучшими педагогами страны, получить незабываемые впечатления, завести новых друзей и познакомиться со своими кумирами.
Жюри: Егор Дружинин, Кристина Кретова, Евгений Папунаишвили, Анастасия Заворотнюк
Ведущий: Александр Олешко
Качество: HDTV
Разрешение видео/развертка: 1080i
Формат файла: TS
Видео кодек: H.264
Аудио кодек: MP2
Видео: H264; 1920x1080 (16:9); 25.000 fps; ~8 555 kb/s
Аудио: MPEG Audio 48000Hz stereo 192 Кбит/сек

MediaInfo

GeneralID : 1 (0x1)Complete name : M:\Ты супер! Танцы 15 выпуск HTB-HD 2017.12.16.tsFormat : MPEG-TSFile size : 7.72 GiBDuration : 2 h 0 minOverall bit rate mode : VariableOverall bit rate : 9 204 kb/s
VideoID : 2104 (0x838)Menu ID : 104 (0x68)Format : AVCFormat/Info : Advanced Video CodecFormat profile : [email protected] settings, CABAC : YesFormat settings, ReFrames : 4 framesCodec ID : 27Duration : 2 h 0 minBit rate : 8 555 kb/sWidth : 1 920 pixelsHeight : 1 080 pixelsDisplay aspect ratio : 16:9Frame rate : 25.000 FPSStandard : ComponentColor space : YUVChroma subsampling : 4:2:0Bit depth : 8 bitsScan type : InterlacedScan type, store method : Separated fieldsScan order : Top Field FirstBits/(Pixel*Frame) : 0.165Stream size : 7.17 GiB (93%)Color range : LimitedColor primaries : BT.709Transfer characteristics : BT.709Matrix coefficients : BT.709
AudioID : 301 (0x12D)Menu ID : 104 (0x68)Format : MPEG AudioFormat version : Version 1Format profile : Layer 2Codec ID : 3Duration : 2 h 0 minBit rate mode : ConstantBit rate : 192 kb/sChannel(s) : 2 channelsSampling rate : 48.0 kHzCompression mode : LossyStream size : 165 MiB (2%)Language : Russian

Скриншоты



[jinwg81.com]_t_5497502.torrent
Торрент: Зарегистрирован ·  [ 2017-12-31 21:54 ] ·  3ae72fd035ec0e5a731ef6c4a944f2df4090c1a6

39 KB

Статус: проверено
Скачан: 1 раз
Размер: 7.72 GB
Оценка: 
(Голосов: 0)
Сказали спасибо: 0  Спасибо
Похожие темы
[Профиль]    [ЛС]
Показать сообщения:    
Ответить на тему

Текущее время: Сегодня 17:13

Часовой пояс: GMT + 7



Вы не можете начинать темы
Вы не можете отвечать на сообщения
Вы не можете редактировать свои сообщения
Вы не можете удалять свои сообщения
Вы не можете голосовать в опросах
Вы не можете прикреплять файлы к сообщениям
Вы можете скачивать файлы