Eps7 Grown-ish Season 1
Eps13 The Blacklist Season 5

Танцы! Ёлка! Муз-ТВ! (Эфир от 03.01.2018) [2018, Pop, DVB]

Ответить на тему
Статистика раздачи [Обновить пиров]
Размер:  5.42 GB   |    Зарегистрирован:  1 месяц 2 дня   |    Скачан:  0 раз

Полного источника не было: Никогда

 
   
 
 
 
Автор Сообщение

jinwg81.com

Создавать темы 19-Янв-2018 21:48

[Цитировать]

Танцы! Ёлка! Муз-ТВ! (Эфир от 03.01.2018)Страна: Россия
Жанр: Pop
Продолжительность: 03:06:10
Год выхода: 2018 г.
Ведущие: Андрей Разыграев и Юлианна Караулова
Описание: Звезды поздравили всех поклонников российской поп-музыки с приближающимся Новым годом и исполнили свои лучшие хиты.-На одной сцене для выступят: Ирина Аллегрова, Сергей Лазарев, Ольга Бузова, Юлианна Караулова, Doni, Сати Казанова, Dvoe, Анна Плетнёва, Банд'Эрос и многие другие.-Источник: Собственный рип
Доп. информация: Рип чистый. Без посторонних надписей. Выкладывается как есть.

Качество: DVB
Формат файла: TS
Видео кодек: H.264
Аудио кодек: MP2
Видео: AVC, 720x576 (@785x576), 4:3, 25.00fps, 3722 Kbps, 0.364 bit/pixel
Аудио: MPEG Audio 48000Hz stereo 256 Кбит/сек

Треклист:

01. Ирина Аллегрова — «Моя семья»;
02. Дима Билан — «Держи»;
03. LOBODA — «Твои глаза»;
04. DONI feat. Сати Казанова — «Я украду»;
05. Вера Брежнева — «Близкие люди»;
06. Иванушки Int. — «Тополиный пух»;
07. Элджей feat. Feduk — «Розовое вино»;
08. Сергей Лазарев — «Так красиво»;
09. Градусы — «Хочется»;
10. Анна Плетнёва — «Ева»;
11. Север 17 — «Скинули»;
12. Гузель Хасанова feat. MASTANK — «Двое»;
13. Стас Костюшкин feat. A-DESSA — «Караочен»;
14. Пицца — «Тебя одну»;
15. Жасмин — «Ты моё, моё...»;
16. 5sta family — «Многоэтажки»;
17. Ольга Бузова — «Хит-парад»;
18. Алексей Воробьёв и Френды — «Я тебя люблю»;
19. Алекс Малиновский — «Пойдём со мной»;
20. MBAND — «Помедленее»;
21. Юлианна Караулова — «Просто так»;
22. Денис Клявер — «Необыкновенная»;
23. Глюкоза — «Таю»;
24. Полина Гагарина — «Драмы больше нет»;
25. Банд'Эрос — «Дорого к тебе»;
26. Иванушки Int. — «Тучи»;
27. Анна Седокова — «Не твоя вина»;
28. Гузель Хасанова — «Найди меня»;
29. Градусы — «Здорово, великолепно»;
30. Митя Фомин — «Быть рядом»;
31. Анна Плетнёва — «Москва»;
32. Даниил Данилевский — «Выше только звёзды»;
33. Бьянка — «TAXI»;
34. Emin — «Люба-Любовь»;
35. Эльман Зейналов — «Адреналин»;
36. Ольга Бузова — «Мало половин»;
37. Дима Билан — «Лабиринты»;
38. Сергей Лазарев — «Lucky stranger»;
39. LOBODA — «Случайная»;
40. MATANK— «Не беда»;
41. Юлианна Караулова — «Не верю»;
42. Вера Брежнева — «Любовь спасёт мир»;
43. Алексей Воробьёв и Настя Кудри — «Я обещаю»;
44. Полина Гагарина — «Обезоружена»;
45. Ирина Аллегрова — «Цветы без повода».

Скриншоты (анаморф)

Скриншоты

Скринлист

Отчёт MediaInfo

ОбщееИдентификатор : 1 (0x1)Полное имя : G:\Раздачи\Программы, передачи, шоу, спектакли\Концерты\Танцы! Ёлка! Муз-ТВ! (2018, DVB, Эфир от 03.01.2018) (by Nokia5150).tsФормат файла : MPEG-TSРазмер файла : 5,42 ГбайтПродолжительность : 3 ч. 6 м.Режим общего битрейта : ПеременныйОбщий поток : 4172 Кбит/сек
ВидеоИдентификатор : 8000 (0x1F40)Идентификатор меню : 1313 (0x521)Формат файла : AVCФормат файла/Информация : Advanced Video CodecПрофиль формата : [email protected]Настройки формата : CABAC / 4 Ref FramesПараметр CABAC формата : ДаПараметр RefFrames формата : 4 кадраИдентификатор кодека : 27Продолжительность : 3 ч. 6 м.Битрейт : 3772 Кбит/секШирина : 720 пикселейВысота : 576 пикселейСоотношение сторон : 4:3Частота кадров : 25,000 кадров/секСтандарт вещания : ComponentЦветовое пространство : YUVСубдискретизация насыщенности : 4:2:0Битовая глубина : 8 битТип развёртки : ЧересстрочнаяМетод сохранения типа развёртки : Раздельные поляПорядок развёртки : Верхнее поле первоеБит/(Пиксели*Кадры) : 0.364Размер потока : 4,90 Гбайт (90%)Цветовой диапазон : LimitedОсновные цвета : BT.601 PALХарактеристики трансфера : BT.470 System B, BT.470 System GКоэффициенты матрицы : BT.470 System B, BT.470 System G
АудиоИдентификатор : 8001 (0x1F41)Идентификатор меню : 1313 (0x521)Формат файла : MPEG AudioВерсия формата : Version 1Профиль формата : Layer 2Идентификатор кодека : 3Продолжительность : 3 ч. 6 м.Вид битрейта : ПостоянныйБитрейт : 192 Кбит/секКаналы : 2 каналаЧастота : 48,0 КГцМетод сжатия : С потерямиЗадержка видео : -120 мс.Размер потока : 256 Мбайт (5%)Язык : Russian



[jinwg81.com]_t_5502105.torrent
Торрент: Зарегистрирован ·  [ 2018-01-19 21:48 ] ·  75bbda46786b925e695218af368911ea13b8bd00

14 KB

Статус: проверено
Скачан: 0 раз
Размер: 5.42 GB
Оценка: 
(Голосов: 0)
Сказали спасибо: 0  Спасибо
Похожие темы
[Профиль]    [ЛС]
Показать сообщения:    
Ответить на тему

Текущее время: Сегодня 18:02

Часовой пояс: GMT + 7



Вы не можете начинать темы
Вы не можете отвечать на сообщения
Вы не можете редактировать свои сообщения
Вы не можете удалять свои сообщения
Вы не можете голосовать в опросах
Вы не можете прикреплять файлы к сообщениям
Вы можете скачивать файлы