Лучшие сексуальные танцы планеты / The best sexual dances of a planet [2012, Танцы, HDTVRip]

Ответить на тему
Статистика раздачи [Обновить пиров]
Размер:  1.09 GB   |    Зарегистрирован:  11 месяцев 4 дня   |    Скачан:  0 раз

Полного источника не было: Никогда

 
   
 
 
 
Автор Сообщение

jinwg81.com

Создавать темы 18-Фев-2017 22:44

[Цитировать]

Лучшие сексуальные танцы планеты / The best sexual dances of a planet
Год выхода: 2012
Страна: Италия, Испания, США
Жанр: Танцы
Продолжительность: 01:29:00
Перевод: Не требуется
Описание: Красивые, загорелые девушки танцуют под самую позитивную музыку планеты, двигая прекрасными точками своего тела. Завораживающее представление сексуальных девушек из разных точек нашей планеты Земля. Самые известные и посещаемые живописные клубы планеты показывают вам куда ехать в отпуск в этом году.
Качество: HDTVRip
Формат файла: WMV
Видео кодек: WMVx
Аудио кодек: Windows Media Audio
Видео: Windows Media Video 9, 720x400, 25fps, 1536kbps
Аудио: Windows Media Audio, 44100Hz, 2ch,192kbps

MI

Общее
Полное имя : E:\Downloads\55\The best sexual dances of a planet.wmv
Формат файла : Windows Media
Размер файла : 1,09 Гбайт
Продолжительность : 1 ч. 29 м.
Режим общего битрейта : Постоянный
Общий поток : 1746 Кбит/сек
Максимальный общий битрейт : 1745 Кбит/сек
Название фильма : The best sexual dances of a planet
Дата кодирования : UTC 2012-02-28 14:12:08.718
Примечание : http://8vorobyevmihail.promodj.ru http://vk.com/vedinstveognja
Видео
Идентификатор : 2
Формат файла : VC-1
Профиль формата : [email protected]
Идентификатор кодека : WMV3
Идентификатор кодека/Информация : Windows Media Video 9
Идентификатор кодека/Подсказка : WMV3
Описание кодека : Windows Media Video 9
Продолжительность : 1 ч. 29 м.
Вид битрейта : Постоянный
Битрейт : 1536 Кбит/сек
Ширина : 720 пикс.
Высота : 400 пикс.
Соотношение сторон : 16:9
Частота кадров : 25,000 кадр/сек
Битовая глубина : 8 бит
Тип развёртки : Прогрессивная
Метод сжатия : С потерями
Бит/(Пиксели*Кадры) : 0.213
Размер потока : 984 Мбайт (88%)
Аудио
Идентификатор : 1
Формат файла : WMA
Версия формата : Version 2
Идентификатор кодека : 161
Идентификатор кодека/Информация : Windows Media Audio
Описание кодека : Windows Media Audio 9.1 - 192 kbps, 44 kHz, stereo (A/V) 1-pass CBR
Продолжительность : 1 ч. 29 м.
Вид битрейта : Постоянный
Битрейт : 192 Кбит/сек
Каналы : 2 канала
Частота : 44,1 КГц
Битовая глубина : 16 бит
Размер потока : 123 Мбайт (11%)
Раздача группы:

Скринлист+Скриншоты



[jinwg81.com]_t_3976773.torrent
Торрент: Зарегистрирован ·  [ 2017-02-18 22:18 ] ·  737adb985b5e319e90f7c6f13ee44703e4d678f4

11 KB

Статус: проверено
Скачан: 0 раз
Размер: 1.09 GB
Оценка: 
(Голосов: 0)
Сказали спасибо: 0  Спасибо
Похожие темы
[Профиль]    [ЛС]
Показать сообщения:    
Ответить на тему

Текущее время: Сегодня 17:14

Часовой пояс: GMT + 7



Вы не можете начинать темы
Вы не можете отвечать на сообщения
Вы не можете редактировать свои сообщения
Вы не можете удалять свои сообщения
Вы не можете голосовать в опросах
Вы не можете прикреплять файлы к сообщениям
Вы можете скачивать файлы