Танцуют все 01 - 05 выпуск [2017, Танцевальное шоу, HDTVRip 720p]

Ответить на тему
Статистика раздачи [Обновить пиров]
Размер:  18.55 GB   |    Зарегистрирован:  8 месяцев 28 дней   |    Скачан:  0 раз

Полного источника не было: Никогда

 
   
 
 
 
Автор Сообщение

jinwg81.com

Создавать темы 23-Апр-2017 00:22

[Цитировать]

Танцуют все 01 - 05 выпуск
Дата/Год выхода: 2017
Страна: Россия
Жанр: Танцевальное шоу
Продолжительность: 01:41:00
Перевод: Не требуется
Телеканал: Россия 1 HD
Описание: Лучшие танцевальные коллективы со всей страны начинают танцевальный марафон. Они выйдут на сцену, чтобы удивить и поразить зрителей и доказать всей стране, что они настоящие профессионалы! Мы увидим танцы, которые волнуют весь мир, танцы, которые хотят танцевать все!
Каждую неделю суперкоманды профессиональных танцоров будут соревноваться за главный приз проекта и звание лучшего танцевального коллектива России.
На главном танцполе России будет бушевать настоящая стихия - танца, движения, ритма, музыки и красоты. Здесь нет границ во времени и пространстве - участники танцуют всё! Разнообразие стилей удивляет, а количество участников потрясает! Их задача не только достойно представить свой собственный стиль, будь то народные или бальные танцы, хип-хоп, брейк-данс или контемпорари, балет или фламенко, но и стать лучшими на чужом поле. Участникам предстоит постоянно перевоплощаться, разрушать стереотипы, преодолевать себя и выступать в новой роли. Они докажут - жанровые границы в танцевальном искусстве достаточно условны и настоящим профессионалам
качество: HDTVRip 720p
формат: mkv
Видео: H264; 1280x720 (16:9); 25.000 fps; ~5 000 kb/s
Аудио: MPEG Audio Version 1 Layer 2, 48000Hz, 2 channels stereo 192 Кбит/сек

MediaInfo

GeneralUnique ID : 172392795361333213685489140586340546825 (0x81B1A509A31C5B099EE6BEA104C1F909)Complete name : I:\111\Танцуют все 2017__720p\Танцуют все 02 выпуск 2017.03.26_720p_kuzmichm2196.mkvFormat : MatroskaFormat version : Version 2File size : 3.70 GiBDuration : 1 h 41 minOverall bit rate : 5 194 kb/sEncoded date : UTC 2017-03-27 17:35:38Writing application : mkvmerge v7.8.0 ('River Man') 32bit built on Apr 3 2015 12:11:22Writing library : libebml v1.3.1 + libmatroska v1.4.2
VideoID : 1Format : AVCFormat/Info : Advanced Video CodecFormat profile : [email protected] settings, CABAC : YesFormat settings, ReFrames : 4 framesCodec ID : V_MPEG4/ISO/AVCDuration : 1 h 41 minBit rate : 5 000 kb/sWidth : 1 280 pixelsHeight : 720 pixelsDisplay aspect ratio : 16:9Frame rate mode : ConstantFrame rate : 25.000 FPSColor space : YUVChroma subsampling : 4:2:0Bit depth : 8 bitsScan type : ProgressiveBits/(Pixel*Frame) : 0.217Stream size : 3.49 GiB (94%)Writing library : x264 core 146 r2538 121396cEncoding settings : cabac=1 / ref=3 / deblock=1:-1:-1 / analyse=0x3:0x113 / me=umh / subme=9 / psy=1 / psy_rd=1.00:0.15 / mixed_ref=1 / me_range=24 / chroma_me=1 / trellis=1 / 8x8dct=1 / cqm=0 / deadzone=21,11 / fast_pskip=1 / chroma_qp_offset=-3 / threads=6 / lookahead_threads=1 / sliced_threads=0 / nr=0 / decimate=1 / interlaced=0 / bluray_compat=0 / constrained_intra=0 / bframes=6 / b_pyramid=2 / b_adapt=1 / b_bias=0 / direct=3 / weightb=1 / open_gop=0 / weightp=2 / keyint=250 / keyint_min=25 / scenecut=40 / intra_refresh=0 / rc_lookahead=40 / rc=2pass / mbtree=1 / bitrate=5000 / ratetol=1.0 / qcomp=0.60 / qpmin=0 / qpmax=69 / qpstep=4 / cplxblur=20.0 / qblur=0.5 / ip_ratio=1.40 / aq=1:1.00Default : YesForced : No
AudioID : 2Format : MPEG AudioFormat version : Version 1Format profile : Layer 2Codec ID : A_MPEG/L2Codec ID/Hint : MP2Duration : 1 h 41 minBit rate mode : ConstantBit rate : 192 kb/sChannel(s) : 2 channelsSampling rate : 48.0 kHzCompression mode : LossyStream size : 140 MiB (4%)Language : RussianDefault : YesForced : No

Скриншоты






[jinwg81.com]_t_5379581.torrent
Торрент: Зарегистрирован ·  [ 2017-04-23 00:18 ] ·  3be7e17e06b60ab244e501fd2a799b0d8d83f5dd

94 KB

Статус: проверено
Скачан: 0 раз
Размер: 18.55 GB
Оценка: 
(Голосов: 0)
Сказали спасибо: 0  Спасибо
Похожие темы
[Профиль]    [ЛС]
Показать сообщения:    
Ответить на тему

Текущее время: Сегодня 03:48

Часовой пояс: GMT + 7



Вы не можете начинать темы
Вы не можете отвечать на сообщения
Вы не можете редактировать свои сообщения
Вы не можете удалять свои сообщения
Вы не можете голосовать в опросах
Вы не можете прикреплять файлы к сообщениям
Вы можете скачивать файлы