Evolution: Tribal Fusion Bellydance Performances [2006, Танец живота, DVDRip]

Ответить на тему
Статистика раздачи [Обновить пиров]
Размер:  639 MB   |    Зарегистрирован:  7 месяцев 2 дня   |    Скачан:  0 раз

Полного источника не было: Никогда

 
   
 
 
 
Автор Сообщение

jinwg81.com

Создавать темы 19-Июн-2017 00:51

[Цитировать]

Evolution: Tribal Fusion Bellydance Performances
Год выхода: 2006
Страна: США
Жанр: Танец живота
Продолжительность: 1:06:39
Сэмпл: http://yadi.sk/i/PNvtW86w3JyaVB
Описание: The revolutionary 'Tribal Fusion' style of bellydance interweaves strains of traditional, multicultural bellydance movements with contemporary/modern American dance movements to create an entirely unique form of bellydancing.
The program includes:
Kaml Liddle performing the tribal fusion dance 'Shisha Room'
The Urban Tribal Dance Company, performing Saptak, a tribal fusion duet
Zoe Jakes performing Mazamir Holiday, a tribal fusion that draws heavily from Egyptian folklore
Ava Fleming performing 'Darkness Falls', a tribal fusion sword dance
Domba-Bascha performing a tribal fusion troupe performance
Karls performing 'Shake Time', a tribal fusion hoop performance, along with a drum solo
Elizabeth Strong performing the 'Serpentine', a tribal fusion sword dance
Devidasi, performing 'Asian Majik', an Asian tribal fusion dance
Meleah performing 'Awaken the Goddess', an Afro-tribal fusion dance
Aubre performing 'Enchanted Garden', a traditional tribal fusion dance
Urban Gypsy performing 'Cirque de Flame', a tribal fusion fire dance
Качество: DVDRip
Формат файла: AVI
Видео кодек: XviD
Аудио кодек: MP3
Видео: XVID Mpeg-4, 1211 Kbps, 29.970 fps, 640*480 (4:3)
Аудио: Lame MP3, 128 Kbps, 44100 Hz

MediaInfo

Формат файла/Информация : Audio Video Interleave
Размер файла : 639 Мбайт
Продолжительность : 1 ч. 6 м.
Общий поток : 1339 Кбит/сек
Программа кодирования : VirtualDubMod 1.5.10.2 (build 2540/release)
Библиотека кодирования : VirtualDubMod build 2540/release
Видео
Идентификатор : 0
Формат файла : MPEG-4 Visual
Профиль формата : [email protected]
Параметр BVOP формата : Нет
Параметр QPel формата : Нет
Параметр GMC формата : Без точки перехода
Параметр матрицы формата : Default (H.263)
Идентификатор кодека : XVID
Идентификатор кодека/Подсказка : XviD
Продолжительность : 1 ч. 6 м.
Битрейт : 1198 Кбит/сек
Ширина : 640 пикселей
Высота : 480 пикселей
Соотношение сторон : 4:3
Частота кадров : 29,970 (30000/1001) кадров/сек
Цветовое пространство : YUV
Субдискретизация насыщенности : 4:2:0
Битовая глубина : 8 бит
Тип развёртки : Прогрессивная
Метод сжатия : С потерями
Бит/(Пиксели*Кадры) : 0.130
Размер потока : 571 Мбайт (89%)
Библиотека кодирования : Magic0432
Аудио
Идентификатор : 1
Формат файла : MPEG Audio
Версия формата : Version 1
Профиль формата : Layer 3
Режим : Joint stereo
Расширение режима : MS Stereo
Идентификатор кодека : 55
Идентификатор кодека/Подсказка : MP3
Продолжительность : 1 ч. 6 м.
Вид битрейта : Постоянный
Битрейт : 128 Кбит/сек
Каналы : 2 канала
Частота : 44,1 КГц
Метод сжатия : С потерями
Размер потока : 61,0 Мбайт (10%)
Выравнивание : Соединение по промежуткам
Продолжительность промежутка : 26 мс. (0,78 видеокадр)
Время предзагрузки промежутка : 522 мс.
Библиотека кодирования : LAME3.97

Скриншоты



[jinwg81.com]_t_885094.torrent
Торрент: Зарегистрирован ·  [ 2017-06-19 00:48 ] ·  d4177321a40c216fd3714353abe7e1048215669f

13 KB

Статус: проверено
Скачан: 0 раз
Размер: 639 MB
Оценка: 
(Голосов: 0)
Сказали спасибо: 0  Спасибо
Похожие темы
[Профиль]    [ЛС]
Показать сообщения:    
Ответить на тему

Текущее время: Сегодня 03:45

Часовой пояс: GMT + 7



Вы не можете начинать темы
Вы не можете отвечать на сообщения
Вы не можете редактировать свои сообщения
Вы не можете удалять свои сообщения
Вы не можете голосовать в опросах
Вы не можете прикреплять файлы к сообщениям
Вы можете скачивать файлы