That\'s Hot! Sizzling Bellydance Performances with Kaya & Sadie [2007, Танец живота, DVDRip]

Ответить на тему
Статистика раздачи [Обновить пиров]
Размер:  576 MB   |    Зарегистрирован:  7 месяцев 4 дня   |    Скачан:  0 раз

Полного источника не было: Никогда

 
   
 
 
 
Автор Сообщение

jinwg81.com

Создавать темы 19-Июн-2017 00:51

[Цитировать]

That's Hot! Sizzling Bellydance Performances with Kaya & Sadie
Год выхода: 2007
Страна: USA
Жанр: Performance, Bellydance
Продолжительность: 0:39:47
Сэмпл: http://yadi.sk/i/NyD6sd5f3JyZbi
Описание: Хмм, что я могу сказать об этом ... так ... если вы мужчина, вы можете пользоваться этим ... если вы женщина ... так ... вы можете пользоваться некоторыми, но не все это. Дамы ... некоторых это может быть охарактеризована только как открыто сексуальное ... это, безусловно, соответствует его названию, но это позор, чтобы Сэди нижних себя этот уровень. Ее танцевальный имеет гораздо более высокие стандарты, чем в Кайя (которые я думал не о том, что хорошо), но носит скудный костюмы и ах просто пришлось это сделать обратно согнуть и, что невероятно жесткий толчок деятельности бюстгальтер?
Я хотел свое первое регулярное вместе, но это очень в стиле кабаре.
Хм, узнать, что вы думаете ...
Kaya and Sadie are the Hottest New Sensation in the Bellydance World. This Extraordinary Duo Have Joined Forces, Resulting in a Unique Entertainment Experience Which Includes Elements of Belly Dance, Fantasy, and Theatrics
Tracks
1 Moon Over Ala Nar - Kaya & Sadie
2 Al Arasiyya - Kaya
3 Badawiyya's Teasing - Sadie
4 Side to Said - Kaya & Sadie
5 Eshtaktillak - Kaya
6 Sahra Saidi - Kaya & Sadie
7 Shake Time - Sadie
8 Raks Ayyoub - Kaya
Качество: DVDRip
Формат файла: AVI
Видео кодек: XviD
Аудио кодек: MP3
Видео: XVID 640 x 468 29.970FPS 1883kbs
Аудио: MPEG-1 Layer 3 48000Hz 128 kb/s tot , Joint Stereo

MediaInfo

Формат файла/Информация : Audio Video Interleave
Размер файла : 576 Мбайт
Продолжительность : 39 м. 47 с.
Общий поток : 2023 Кбит/сек
Программа кодирования : VirtualDubMod 1.5.10.2 (build 2540/release)
Библиотека кодирования : VirtualDubMod build 2540/release
Видео
Идентификатор : 0
Формат файла : MPEG-4 Visual
Профиль формата : Advanced [email protected]
Параметр BVOP формата : 2
Параметр QPel формата : Нет
Параметр GMC формата : Без точки перехода
Параметр матрицы формата : Default (H.263)
Режим смешивания : Сжатый битовый поток
Идентификатор кодека : XVID
Идентификатор кодека/Подсказка : XviD
Продолжительность : 39 м. 47 с.
Битрейт : 1884 Кбит/сек
Ширина : 640 пикселей
Высота : 468 пикселей
Соотношение сторон : 4:3
Частота кадров : 29,970 (30000/1001) кадров/сек
Цветовое пространство : YUV
Субдискретизация насыщенности : 4:2:0
Битовая глубина : 8 бит
Тип развёртки : Прогрессивная
Метод сжатия : С потерями
Бит/(Пиксели*Кадры) : 0.210
Размер потока : 536 Мбайт (93%)
Библиотека кодирования : XviD 1.0.3 (UTC 2004-12-20)
Аудио
Идентификатор : 1
Формат файла : MPEG Audio
Версия формата : Version 1
Профиль формата : Layer 3
Режим : Joint stereo
Расширение режима : MS Stereo
Идентификатор кодека : 55
Идентификатор кодека/Подсказка : MP3
Продолжительность : 39 м. 47 с.
Вид битрейта : Постоянный
Битрейт : 128 Кбит/сек
Каналы : 2 канала
Частота : 48,0 КГц
Метод сжатия : С потерями
Размер потока : 36,4 Мбайт (6%)
Выравнивание : Соединение по промежуткам
Продолжительность промежутка : 33 мс. (1,00 видеокадр)
Время предзагрузки промежутка : 504 мс.

Скриншоты



[jinwg81.com]_t_1350558.torrent
Торрент: Зарегистрирован ·  [ 2017-06-19 00:48 ] ·  34338af6063c46aa014448ff2a3a5645bfb8db0b

12 KB

Статус: проверено
Скачан: 0 раз
Размер: 576 MB
Оценка: 
(Голосов: 0)
Сказали спасибо: 0  Спасибо
[Профиль]    [ЛС]
Показать сообщения:    
Ответить на тему

Текущее время: Сегодня 17:11

Часовой пояс: GMT + 7



Вы не можете начинать темы
Вы не можете отвечать на сообщения
Вы не можете редактировать свои сообщения
Вы не можете удалять свои сообщения
Вы не можете голосовать в опросах
Вы не можете прикреплять файлы к сообщениям
Вы можете скачивать файлы