Ты супер! Танцы 05 выпуск HTB-HD 2017.09.30 [2017, ТВ-Шоу, HDTV, 1080i]

Ответить на тему
Статистика раздачи [Обновить пиров]
Размер:  11.47 GB   |    Зарегистрирован:  3 месяца 17 дней   |    Скачан:  0 раз

Полного источника не было: 1 месяц 19 дней

Личеров:  1  [  0 KB/s  ]   Подробная статистика скачивающих
 
   
 
 
 
Автор Сообщение

jinwg81.com

Создавать темы 06-Окт-2017 16:12

[Цитировать]

Ты супер! Танцы 05 выпуск HTB-HD 2017.09.30
Дата/Год выхода: 2017
Страна: Россия
Жанр: ТВ-Шоу
Продолжительность: 02:08:00
Перевод: Не требуется
Телеканал: HTB-HD
Описание: Проект «Ты супер! Танцы», который, поможет изменить к лучшему жизнь детей, оставшихся без попечения родителей. Детей, которые увлекаются танцами. Участие в проекте — это шанс заявить о себе на широкую аудиторию, возможность поработать с лучшими педагогами страны, получить незабываемые впечатления, завести новых друзей и познакомиться со своими кумирами.
Жюри: Егор Дружинин, Кристина Кретова, Евгений Папунаишвили, Анастасия Заворотнюк
Ведущий: Александр Олешко
Качество: HDTV
Разрешение видео/развертка: 1080i
Формат файла: TS
Видео кодек: H.264
Аудио кодек: AC-3
Видео: H264; 1920x1080 (16:9); 25.000 fps; ~11.9 Mb/s
Аудио: AC-3, 48000Hz stereo 192 Кбит/сек

MediaInfo

GeneralID : 0 (0x0)Complete name : I:\НТВ-HD\Ты супер! Танцы 05 выпуск HTB-HD 2017.09.30.tsFormat : MPEG-TSFile size : 11.5 GiBDuration : 2 h 8 minOverall bit rate mode : VariableOverall bit rate : 12.7 Mb/s
VideoID : 4113 (0x1011)Menu ID : 1 (0x1)Format : AVCFormat/Info : Advanced Video CodecFormat profile : [email protected] settings, CABAC : YesFormat settings, ReFrames : 4 framesCodec ID : 27Duration : 2 h 8 minBit rate : 11.9 Mb/sWidth : 1 920 pixelsHeight : 1 080 pixelsDisplay aspect ratio : 16:9Frame rate : 25.000 FPSStandard : ComponentColor space : YUVChroma subsampling : 4:2:0Bit depth : 8 bitsScan type : InterlacedScan type, store method : Separated fieldsScan order : Top Field FirstBits/(Pixel*Frame) : 0.230Stream size : 10.7 GiB (94%)Color range : LimitedColor primaries : BT.709Transfer characteristics : BT.709Matrix coefficients : BT.709
AudioID : 4352 (0x1100)Menu ID : 1 (0x1)Format : AC-3Format/Info : Audio Coding 3Mode extension : CM (complete main)Format settings, Endianness : BigCodec ID : 129Duration : 2 h 8 minBit rate mode : ConstantBit rate : 192 kb/sChannel(s) : 2 channelsChannel positions : Front: L RSampling rate : 48.0 kHzFrame rate : 31.250 FPS (1536 spf)Bit depth : 16 bitsCompression mode : LossyStream size : 177 MiB (2%)

Скриншоты



[jinwg81.com]_t_5461371.torrent
Торрент: Зарегистрирован ·  [ 2017-10-06 16:12 ] ·  85cf789e7ecd33e57264db5b3471b0bc40b8a137

58 KB

Статус: проверено
Скачан: 0 раз
Размер: 11.47 GB
Оценка: 
(Голосов: 0)
Сказали спасибо: 0  Спасибо
Похожие темы
[Профиль]    [ЛС]
Показать сообщения:    
Ответить на тему

Текущее время: Сегодня 17:15

Часовой пояс: GMT + 7



Вы не можете начинать темы
Вы не можете отвечать на сообщения
Вы не можете редактировать свои сообщения
Вы не можете удалять свои сообщения
Вы не можете голосовать в опросах
Вы не можете прикреплять файлы к сообщениям
Вы можете скачивать файлы