Ты супер! Танцы 12 выпуск HTB-HD 2017.11.25 [2017, ТВ-Шоу, HDTV, 1080i]

Ответить на тему
Статистика раздачи [Обновить пиров]
Размер:  11.88 GB   |    Зарегистрирован:  1 месяц 20 дней   |    Скачан:  0 раз

Полного источника не было: 1 месяц 18 дней

 
   
 
 
 
Автор Сообщение

jinwg81.com

Создавать темы 03-Дек-2017 13:12

[Цитировать]

Ты супер! Танцы 12 выпуск HTB-HD 2017.11.25
Дата/Год выхода: 2017
Страна: Россия
Жанр: ТВ-Шоу
Продолжительность: 02:09:00
Перевод: Не требуется
Телеканал: HTB-HD
Описание: Проект «Ты супер! Танцы», который, поможет изменить к лучшему жизнь детей, оставшихся без попечения родителей. Детей, которые увлекаются танцами. Участие в проекте — это шанс заявить о себе на широкую аудиторию, возможность поработать с лучшими педагогами страны, получить незабываемые впечатления, завести новых друзей и познакомиться со своими кумирами.
Жюри: Егор Дружинин, Кристина Кретова, Евгений Папунаишвили, Анастасия Заворотнюк
Ведущий: Александр Олешко
Качество: HDTV
Разрешение видео/развертка: 1080i
Формат файла: TS
Видео кодек: H.264
Аудио кодек: MP2
Видео: H264; 1920x1080 (16:9); 25.000 fps; ~12.3 Mb/s
Аудио: MPEG Audio 48000Hz stereo 192 Кбит/сек

MediaInfo

GeneralID : 1 (0x1)Complete name : M:\Ты супер! Танцы 12 выпуск HTB-HD 2017.11.25.tsFormat : MPEG-TSFile size : 11.9 GiBDuration : 2 h 9 minOverall bit rate mode : VariableOverall bit rate : 13.1 Mb/s
VideoID : 201 (0xC9)Menu ID : 2201 (0x899)Format : AVCFormat/Info : Advanced Video CodecFormat profile : [email protected] settings, CABAC : YesFormat settings, ReFrames : 4 framesCodec ID : 27Duration : 2 h 9 minBit rate : 12.3 Mb/sWidth : 1 920 pixelsHeight : 1 080 pixelsDisplay aspect ratio : 16:9Frame rate : 25.000 FPSStandard : ComponentColor space : YUVChroma subsampling : 4:2:0Bit depth : 8 bitsScan type : InterlacedScan type, store method : Separated fieldsScan order : Top Field FirstBits/(Pixel*Frame) : 0.237Stream size : 11.1 GiB (94%)Color range : LimitedColor primaries : BT.709Transfer characteristics : BT.709Matrix coefficients : BT.709
AudioID : 301 (0x12D)Menu ID : 2201 (0x899)Format : MPEG AudioFormat version : Version 1Format profile : Layer 2Codec ID : 3Duration : 2 h 9 minBit rate mode : ConstantBit rate : 192 kb/sChannel(s) : 2 channelsSampling rate : 48.0 kHzCompression mode : LossyStream size : 178 MiB (1%)Language : Russian

Скриншоты




[jinwg81.com]_t_5485477.torrent
Торрент: Зарегистрирован ·  [ 2017-12-03 13:12 ] ·  f4711ecfe2e64fbd77fdab250f210805cde0ef2e

60 KB

Статус: проверено
Скачан: 0 раз
Размер: 11.88 GB
Оценка: 
(Голосов: 0)
Сказали спасибо: 0  Спасибо
Похожие темы
[Профиль]    [ЛС]
Показать сообщения:    
Ответить на тему

Текущее время: Сегодня 17:18

Часовой пояс: GMT + 7



Вы не можете начинать темы
Вы не можете отвечать на сообщения
Вы не можете редактировать свои сообщения
Вы не можете удалять свои сообщения
Вы не можете голосовать в опросах
Вы не можете прикреплять файлы к сообщениям
Вы можете скачивать файлы