Guys with kids
Gwiazda szeryfa

Доверие (Виктор Трегубович, Эдвин Лайне) [1975, исторический фильм, VHSRip]

Ответить на тему
Статистика раздачи [Обновить пиров]
Размер:  1.06 GB   |    Зарегистрирован:  10 дней   |    Скачан:  0 раз

Полного источника не было: Никогда

 
   
 
 
 
Автор Сообщение

jinwg81.com

Создавать темы 13-Фев-2018 12:21

[Цитировать]

Доверие
Жанр: исторический фильм
Год выхода: 1975
Продолжительность: 01:30:58
Режиссёр: Виктор Трегубович, Эдвин Лайне
В ролях: Кирилл Лавров, Вилко Сиивола, Юрьё Тяхтеля, Йори Пауло, Эса Саарио, Ярно Хииллоскорпи, Матти Ранин, Юсси Юркка, Ееро Салми, Олави Туоми, Маргарита Терехова, Антонина Шуранова, Игорь Дмитриев, Владимир Татосов, Леонид Неведомский, Алексей Эйбоженко, Леонхард Мерзин, Олег Янковский, Вячеслав Васильев
Описание: Действие фильма разворачивается в течение одного дня - 31 декабря 1917 года. На заседании Совета Народных комиссаров, проходившем под председательством В.И.Ленина, принимается решение о признании независимости Финляндии...
Доп. информация: Русская версия фильма.
Специальный диплом фильму на 10-м ВКФ (1977).
Семпл: http://www.sendspace.com/file/24xwkd
Качество видео: VHSRip
Формат файла: AVI
Видео: 640x480 (4:3), 25 fps, XviD build 1521 kbps.
Аудио: 48 kHz, MPEG Layer 3, 2 ch, ~128 kbps avg

MediaInfo

Общее
Полное имя : D:\Доверие.1975.avi
Формат файла : AVI
Формат файла/Информация : Audio Video Interleave
Профиль формата : OpenDML
Размер файла : 1,06 Гбайт
Продолжительность : 1 ч. 30 м.
Общий поток : 1666 Кбит/сек
Программа кодирования : Lavf56.40.101
Видео
Идентификатор : 0
Формат файла : xvid
Идентификатор кодека : xvid
Продолжительность : 1 ч. 30 м.
Битрейт : 1521 Кбит/сек
Ширина : 640 пикселей
Высота : 480 пикселей
Соотношение сторон : 4:3
Частота кадров : 25,000 кадров/сек
Тип развёртки : Прогрессивная
Бит/(Пиксели*Кадры) : 0.198
Размер потока : 990 Мбайт (91%)
Аудио
Идентификатор : 1
Формат файла : MPEG Audio
Версия формата : Version 1
Профиль формата : Layer 3
Настройки формата : Joint stereo / MS Stereo
Идентификатор кодека : 55
Идентификатор кодека/Подсказка : MP3
Продолжительность : 1 ч. 30 м.
Вид битрейта : Постоянный
Битрейт : 128 Кбит/сек
Каналы : 2 канала
Частота : 48,0 КГц
Метод сжатия : С потерями
Размер потока : 83,3 Мбайт (8%)
Выравнивание : Соединение по промежуткам
Продолжительность промежутка : 24 мс. (0,60 видеокадр)
Время предзагрузки промежутка : 24 мс.


[jinwg81.com]_t_5516288.torrent
Торрент: Зарегистрирован ·  [ 2018-02-13 12:21 ] ·  502532b007cbaa614091a1d4dc0bbfaef782ee84

11 KB

Статус: проверено
Скачан: 0 раз
Размер: 1.06 GB
Оценка: 
(Голосов: 0)
Сказали спасибо: 0  Спасибо
Похожие темы
[Профиль]    [ЛС]
Показать сообщения:    
Ответить на тему

Текущее время: Сегодня 03:27

Часовой пояс: GMT + 7



Вы не можете начинать темы
Вы не можете отвечать на сообщения
Вы не можете редактировать свои сообщения
Вы не можете удалять свои сообщения
Вы не можете голосовать в опросах
Вы не можете прикреплять файлы к сообщениям
Вы можете скачивать файлы