Тодес - балет Аллы Духовой. Нам 27. (эфир 2015.01.03) (Алла Духова) [2015, Show, DVB]

Ответить на тему
Статистика раздачи [Обновить пиров]
Размер:  3.86 GB   |    Зарегистрирован:  11 месяцев 4 дня   |    Скачан:  0 раз

Полного источника не было: Никогда

 
   
 
 
 
Автор Сообщение

jinwg81.com

Создавать темы 18-Фев-2017 22:44

[Цитировать]

Тодес - балет Аллы Духовой. Нам 27. (эфир 2015.01.03)
Дата/Год выхода: 2015
Страна: Россия
Жанр: Show
Продолжительность: 01:24:00
Перевод: Не требуется
Режиссер: Алла Духова
Телеканал: НТВ
Описание: Уже 27 лет знаменитый коллектив балета «Тодес» вместе с его бессменным руководителем Аллой Духовой радуют и удивляют зрителей своим неповторимым, красочным стилем, отточенным мастерством и невероятной энергетикой. В новогодние праздники всех поклонников современной хореографии ждет незабываемое представление от артистов балета. Яркие и динамичные танцевальные номера, потрясающе эффектные хореографические приемы, впечатляющие костюмы и удивительное световое шоу – зрители побывают на настоящем новогоднем празднике музыки и танца!
качество: DVB
формат: MPG
Видео: MPEG 2, [email protected]1024x576 (16:9), анаморф, 25 fps, 6 249 Kbps
Аудио: MPEG Audiо, 2 сh, 48 kHz, 192 kbps

MediaInfo

GeneralComplete name : Q:\2014-2015 НОВОГОДНИЕ\Тодес - балет Аллы Духовой 2015.01.03.mpgFormat : MPEG-PSFile size : 3.86 GiBDuration : 1h 24mnOverall bit rate mode : VariableOverall bit rate : 6 571 KbpsWriting library : (c) 1998-2012 Womble Multimedia, Inc. / MPEG Video Wizard DVD 5.0.1.100 (03/2011) / Sep 22 2012
VideoID : 224 (0xE0)Format : MPEG VideoFormat version : Version 2Format profile : [email protected] settings, BVOP : YesFormat settings, Matrix : CustomFormat settings, GOP : VariableFormat settings, picture struc : FrameDuration : 1h 24mnBit rate mode : VariableBit rate : 6 249 KbpsMaximum bit rate : 15.0 MbpsWidth : 720 pixelsHeight : 576 pixelsDisplay aspect ratio : 16:9Frame rate : 25.000 fpsStandard : PALColor space : YUVChroma subsampling : 4:2:0Bit depth : 8 bitsScan type : InterlacedScan order : Top Field FirstCompression mode : LossyBits/(Pixel*Frame) : 0.603Time code of first frame : 00:00:00:00Time code source : Group of pictures headerGOP, Open/Closed : OpenStream size : 3.67 GiB (95%)Writing library : (c) 1998-2012 Womble Multimedia, Inc. / MPEG Video Wizard DVD 5.0.1.100 (03/2011) / Sep 22 2012
AudioID : 192 (0xC0)Format : MPEG AudioFormat version : Version 1Format profile : Layer 2Duration : 1h 24mnBit rate mode : ConstantBit rate : 192 KbpsChannel(s) : 2 channelsSampling rate : 48.0 KHzCompression mode : LossyDelay relative to video : -40msStream size : 115 MiB (3%)
Menu

Скриншоты



[jinwg81.com]_t_4914320.torrent
Торрент: Зарегистрирован ·  [ 2017-02-18 22:18 ] ·  3f2eb6b40de03f1d4031cfd41c6c127c065bcd18

20 KB

Статус: проверено
Скачан: 0 раз
Размер: 3.86 GB
Оценка: 
(Голосов: 0)
Сказали спасибо: 0  Спасибо
Похожие темы
[Профиль]    [ЛС]
Показать сообщения:    
Ответить на тему

Текущее время: Сегодня 17:16

Часовой пояс: GMT + 7



Вы не можете начинать темы
Вы не можете отвечать на сообщения
Вы не можете редактировать свои сообщения
Вы не можете удалять свои сообщения
Вы не можете голосовать в опросах
Вы не можете прикреплять файлы к сообщениям
Вы можете скачивать файлы