Красотка / Красивая женщина / Pretty Woman (Гэрри Маршалл / Garry Marshall) [1990, США, комедия, мелодрама, драма, BDRip] AVO (Алексей Михалев) + AVO (Андрей Гаврилов) + AVO (Василий Горчаков) + Sub (Rus, Eng)

Ответить на тему
Статистика раздачи [Обновить пиров]
Размер:  2.06 GB   |    Зарегистрирован:  1 год   |    Скачан:  0 раз

Полного источника не было: Никогда

 
   
 
 
 
Автор Сообщение

jinwg81.com

Создавать темы 14-Фев-2017 13:48

[Цитировать]

Красотка / Красивая женщина / Pretty Woman
Страна: США
Жанр: комедия, мелодрама, драма
Год выпуска: 1990
Продолжительность: 01:59:45
Перевод: Авторский (одноголосый закадровый) Алексей Михалев
Перевод 2: Авторский (одноголосый закадровый) Андрей Гаврилов
Перевод 3: Авторский (одноголосый закадровый) Василий Горчаков
Cубтитры: Русские / Английские (отдельно)
Режиссер: Гэрри Маршалл / Garry Marshall
В ролях: Ричард Гир, Джулия Робертс, Ральф Беллами, Джейсон Александр, Лора Сан Джакомо, Алекс Хайд-Вайт, Эми Ясбек, Элинор Донахью, Гектор Элизондо, Джудит Болдуин
Описание: Успешный бизнесмен Эдвард Льюис готовится заключить крупную сделку. Он занимается покупкой крупных компании и перепродажей их по частям. Коротая вечер в поездке по городу на шикарной машине, Эдвард снимает проститутку Вивьен, работающую недалеко от Аллеи звёзд. Общение с ней не оставляет сдержанного финансиста равнодушным. Непосредственность Вивьен, её милые привычки и искренность заставляют в некотором роде забыть о том, чем она зарабатывает на жизнь. Девушка также очарована манерам нового знакомого и его доброму отношению. Проведённые вместе вечер и ночь подталкивают пару к обоюдно выгодному соглашению: Эдвард готов заплатить три тысячи за компанию Вивьен, пока он будет вести дела в городе. За это время пара пройдёт через все этапы отношений, столкнется с рядом проблем и испытает букет эмоций. Возможно, новое чувство способно сделать отстранённого Эдварда более сочувствующим, что неизменно повлияет на его работу и планы на будущее...
Сэмпл: http://multi-up.com/1139469
Качество видео: BDRip [url=viewtopic.php?t=3569656](Исходник BDRemux 1080p)[/url]
Формат видео: AVI
Видео: XviD 73, 720x384, (1,85:1), 23,976 fps, 1863 Кбит/с, 0.28 bit/pixel
Аудио: Русский (АС3, 2 ch (Front: L R), 48,0 KHz, 192 Kbps)
Аудио 2: Русский (АС3, 2 ch (Front: L R), 48,0 KHz, 192 Kbps)
Аудио 3: Русский (АС3, 2 ch (Front: L R), 48,0 KHz, 192 Kbps)

MediaInfo

Общее
Полное имя : F:\Видеофильмы\В и д е о\Красотка_(комедия, мелодрама 1990 год)_Leonard_Lew\Красотка_(комедия, мелодрама 1990 год)_Leonard_Lew.avi
Формат : AVI
Формат/Информация : Audio Video Interleave
Профиль формата : OpenDML
Размер файла : 2,06 Гбайт
Продолжительность : 1 ч. 59 м.
Общий поток : 2463 Кбит/сек
Программа кодирования : VirtualDubMod 1.5.10.3 | www.virtualdub-fr.org || (build 2550/release)
Библиотека кодирования : VirtualDubMod build 2550/release
Видео
Идентификатор : 0
Формат : MPEG-4 Visual
Профиль формата : Advanced [email protected]
Параметр BVOP формата : 2
Параметр QPel формата : Нет
Параметр GMC формата : Без точки перехода
Параметр матрицы формата : Выборочная
Идентификатор кодека : XVID
Идентификатор кодека/Подсказка : XviD
Продолжительность : 1 ч. 59 м.
Битрейт : 1863 Кбит/сек
Ширина : 720 пикселей
Высота : 384 пикселя
Соотношение сторон : 1,85:1
Частота кадров : 23,976 (23976/1000) кадра/сек
Цветовое пространство : YUV
Субдискретизация насыщенности : 4:2:0
Битовая глубина : 8 бит
Тип развёртки : Прогрессивная
Метод сжатия : С потерями
Бит/(Пиксели*Кадры) : 0.281
Размер потока : 1,56 Гбайт (76%)
Библиотека кодирования : XviD 73
Аудио #1
Идентификатор : 1
Формат : AC-3
Формат/Информация : Audio Coding 3
Расширение режима : CM (complete main)
Параметр Endianness формата : Big
Идентификатор кодека : 2000
Продолжительность : 1 ч. 59 м.
Вид битрейта : Постоянный
Битрейт : 192 Кбит/сек
Каналы : 2 канала
Расположение каналов : Front: L R
Частота : 48,0 КГц
Частота кадров : 31,250 кадров/сек (1536 spf)
Метод сжатия : С потерями
Размер потока : 164 Мбайт (8%)
Выравнивание : Разделение по промежуткам
Продолжительность промежутка : 42 мс. (1,00 видеокадр)
Время предзагрузки промежутка : 500 мс.
Аудио #2
Идентификатор : 2
Формат : AC-3
Формат/Информация : Audio Coding 3
Расширение режима : CM (complete main)
Параметр Endianness формата : Big
Идентификатор кодека : 2000
Продолжительность : 1 ч. 59 м.
Вид битрейта : Постоянный
Битрейт : 192 Кбит/сек
Каналы : 2 канала
Расположение каналов : Front: L R
Частота : 48,0 КГц
Частота кадров : 31,250 кадров/сек (1536 spf)
Метод сжатия : С потерями
Размер потока : 164 Мбайт (8%)
Выравнивание : Разделение по промежуткам
Продолжительность промежутка : 42 мс. (1,00 видеокадр)
Время предзагрузки промежутка : 500 мс.
Аудио #3
Идентификатор : 3
Формат : AC-3
Формат/Информация : Audio Coding 3
Расширение режима : CM (complete main)
Параметр Endianness формата : Big
Идентификатор кодека : 2000
Продолжительность : 1 ч. 59 м.
Вид битрейта : Постоянный
Битрейт : 192 Кбит/сек
Каналы : 2 канала
Расположение каналов : Front: L R
Частота : 48,0 КГц
Частота кадров : 31,250 кадров/сек (1536 spf)
Метод сжатия : С потерями
Размер потока : 164 Мбайт (8%)
Выравнивание : Разделение по промежуткам
Продолжительность промежутка : 42 мс. (1,00 видеокадр)
Время предзагрузки промежутка : 500 мс.

Скриншот c названием фильма



[jinwg81.com]_torrent-5353638.torrent
Торрент: Зарегистрирован ·  [ 2017-02-14 13:48 ] ·  57e497e3bc708ed718ebb7338250dee851c22384

11 KB

Статус: проверено
Скачан: 0 раз
Размер: 2.06 GB
Оценка: 
(Голосов: 0)
Сказали спасибо: 0  Спасибо
Похожие темы
[Профиль]    [ЛС]
Показать сообщения:    
Ответить на тему

Текущее время: Сегодня 16:49

Часовой пояс: GMT + 7



Вы не можете начинать темы
Вы не можете отвечать на сообщения
Вы не можете редактировать свои сообщения
Вы не можете удалять свои сообщения
Вы не можете голосовать в опросах
Вы не можете прикреплять файлы к сообщениям
Вы можете скачивать файлы