iZombie HDTV 720p AC3 5.1
Orphan Black HDTV 720p AC3 5.1

Сумятица в мыслях / Trouble in Mind (Алан Рудольф / Alan Rudolph) [1985, США, триллер, драма, комедия, криминал, DVDRip] Sub Rus + Original Eng

Ответить на тему
Статистика раздачи [Обновить пиров]
Размер:  699 MB   |    Зарегистрирован:  1 год   |    Скачан:  0 раз

Полного источника не было: Никогда

 
   
 
 
 
Автор Сообщение

jinwg81.com

Создавать темы 14-Фев-2017 13:48

[Цитировать]

Сумятица в мыслях / Trouble in Mind
Страна: США
Жанр: триллер, драма, комедия, криминал
Год выпуска: 1985
Продолжительность: 01:52:14
Перевод: Субтитры (Verrucka)
Cубтитры: русские
Оригинальная аудиодорожка: английский
Режиссер: Алан Рудольф / Alan Rudolph
В ролях: Крис Кристофферсон, Кит Кэрредин, Лори Сингер, Женевьев Бюжо, Джо Мортон, Дивайн, Джордж Кирби, Джон Консидайн, Дирк Блокер
Описание: Хоук когда-то был полицейским, но совершил убийство и попал в тюрьму, где отсидел восемь лет. После этого он возвращается домой. В кафе, принадлежащем его бывшей девушке Ванде, он знакомится с молодой женщиной по имени Джорджия, которая оказывается женой преступника.
Сэмпл: http://www.sendspace.com/file/hibr4b
Качество видео: DVDRip
Формат видео: AVI
Видео: MPEG-4 Visual, XviD, 544*304, 16:9, 23.976 (24000/1001) FPS, 4:2:0, 588 MiB (84%)
Аудио: MPEG Audio, MP3, 128 kb/s, 2 channels, 48.0 kHz, 103 MiB (15%)
Формат субтитров: softsub (SRT)

MediaInfo

Format : AVI
Format/Info : Audio Video Interleave
File size : 699 MiB
Duration : 1 h 52 min
Overall bit rate : 870 kb/s
Writing application : FairUse Wizard
Writing library : The best and REALLY easy backup tool
Video
ID : 0
Format : MPEG-4 Visual
Format profile : Advanced [email protected]
Format settings, BVOP : 1
Format settings, QPel : No
Format settings, GMC : No warppoints
Format settings, Matrix : Default (MPEG)
Muxing mode : Packed bitstream
Codec ID : XVID
Codec ID/Hint : XviD
Duration : 1 h 52 min
Bit rate : 733 kb/s
Width : 544 pixels
Height : 304 pixels
Display aspect ratio : 16:9
Frame rate : 23.976 (24000/1001) FPS
Color space : YUV
Chroma subsampling : 4:2:0
Bit depth : 8 bits
Scan type : Progressive
Compression mode : Lossy
Bits/(Pixel*Frame) : 0.185
Stream size : 588 MiB (84%)
Writing library : XviD 1.2.0.dev47 (UTC 2006-11-01)
Audio
ID : 1
Format : MPEG Audio
Format version : Version 1
Format profile : Layer 3
Mode : Joint stereo
Mode extension : MS Stereo
Codec ID : 55
Codec ID/Hint : MP3
Duration : 1 h 52 min
Bit rate mode : Constant
Bit rate : 128 kb/s
Channel(s) : 2 channels
Sampling rate : 48.0 kHz
Compression mode : Lossy
Stream size : 103 MiB (15%)
Alignment : Aligned on interleaves
Interleave, duration : 42 ms (1.00 video frame)
Interleave, preload duration : 504 ms
Writing library : LAME3.97
Encoding settings : -m j -V 4 -q 2 -lowpass 17 -b 128

Скриншот c названием фильма

Скриншоты

Фрагмент субтитров

509
00:48:48,720 --> 00:48:50,309
- Три сотни.
- Что?
510
00:48:50,309 --> 00:48:51,416
Это смешно.
511
00:48:52,293 --> 00:48:55,032
Может, в следующий раз
мы будем более щедры.
512
00:48:55,032 --> 00:48:57,160
Не будет никакого следующего раза.
513
00:48:57,929 --> 00:49:00,932
Если только ты не предложишь
800 прямо сейчас.
514
00:49:06,078 --> 00:49:07,362
Что ты на это скажешь, Соло?
515
00:49:07,362 --> 00:49:08,842
А ты что, сразу не расслышал?
516
00:49:20,030 --> 00:49:24,523
Извини, не имею права
предлагать больше трех сотен.
517
00:49:26,106 --> 00:49:28,661
Тогда мы поговорим с тем,
кто имеет право.
518
00:49:57,983 --> 00:50:02,130
Значит, вы и есть те гадкие мальчишки,
решившие разрушить годы налаженной торговли?
519
00:50:02,615 --> 00:50:05,217
Они не выглядят крутыми, как по мне.
520
00:50:05,643 --> 00:50:09,223
Напряженные слегка,
но точно не крутые.
521
00:50:09,946 --> 00:50:13,919
Когда их корабль в гавани,
все рабочие устраивают забастовку.
522
00:50:15,481 --> 00:50:20,810
Странно, что многие люди считают меня ангельски терпеливым,
тогда как я совершенно противоположное.


[jinwg81.com]_torrent-5352400.torrent
Торрент: Зарегистрирован ·  [ 2017-02-14 13:48 ] ·  da526e2916604232f4c1acd6b7c57fa2c3cb0d61

14 KB

Статус: проверено
Скачан: 0 раз
Размер: 699 MB
Оценка: 
(Голосов: 0)
Сказали спасибо: 0  Спасибо
Похожие темы
[Профиль]    [ЛС]
Показать сообщения:    
Ответить на тему

Текущее время: Сегодня 22:15

Часовой пояс: GMT + 7



Вы не можете начинать темы
Вы не можете отвечать на сообщения
Вы не можете редактировать свои сообщения
Вы не можете удалять свои сообщения
Вы не можете голосовать в опросах
Вы не можете прикреплять файлы к сообщениям
Вы можете скачивать файлы