Prawdziwe psy
Prawo ulicy

Вечерний прикид / Французские забавы / Нежно голубой / Pedale douce (Габриэль Агион / Gabriel Aghion) [1996, Комедия, DVDRip-AVC] MVO (РТР) + Original (Fre)

Ответить на тему
Статистика раздачи [Обновить пиров]
Размер:  2.16 GB   |    Зарегистрирован:  1 год   |    Скачан:  1 раз

Полного источника не было: 4 месяца

 
   
 
 
 
Автор Сообщение

jinwg81.com

Создавать темы 14-Фев-2017 13:48

[Цитировать]

Вечерний прикид / Французские забавы / Pedale douce
Страна: Франция
Жанр: Комедия
Год выпуска: 1996
Продолжительность: 01:37:39
Перевод: Профессиональный многоголосый закадровый (РТР)
Субтитры: нет
Режиссер: Габриэль Агион / Gabriel Aghion
В ролях: Патрик Тимси, Фанни Ардан, Ришар Берри, Мишель Ларок, Жак Гамблен, Борис Терраль, Аксель Абади и др.
Описание: Блестящий сотрудник банка Адриен Эймар старательно скрывает от коллег свои безумные ночи, которые он регулярно проводит в гей-ресторане своей давней хорошей знакомой Евы. Собираясь на деловой ужин к директору Европейского Банка, женатому 15 лет и известному своей принципиальной гетеросексуальностью, Адриен просит Еву сыграть роль спутницы жизни. Однако нехитрый обман быстро распознается другим "скрытым" гомосексуалом, а к тому же директор влюбляется в Еву. И теперь ему приходится жертвовать своими пуританскими взглядами, чтобы продолжать приятное знакомство. А вокруг него уже завертелась веселая кутерьма с переодеваниями, забавными ошибками и смешными гэгами…
[img]http://rating.kinopoisk.ru/57536.gif[/img]
СЕМПЛ
Качество видео: DVD-Rip AVC (Источник - DVD9)
Формат видео: MKV
Видео: AVC; 720х556 ([email protected]); 25 fps; ~2700 kbps
Аудио 1: AC3, 48 kHz, Stereo, 192 kbps | MVO - Русский
Аудио 2: AC3, 48 kHAC3, 48 kHz, Stereo, 192 kbps | Original - French
Отдельное спасибо andre-asb за предоставленный DVD
и "Переулку Переводмана" за работу со звуком.
В релизе использована редкая озвучка от канала РТР

MediaInfox264 log

x264 [info]: frame I:864 Avg QP:13.87 size: 64685
x264 [info]: frame P:32206 Avg QP:16.61 size: 29271
x264 [info]: frame B:113420 Avg QP:19.19 size: 9087
x264 [info]: consecutive B-frames: 1.3% 2.4% 10.3% 23.5% 12.0% 47.5% 2.8% 0.3%
x264 [info]: mb I I16..4: 10.0% 69.7% 20.2%
x264 [info]: mb P I16..4: 2.1% 28.5% 4.4% P16..4: 26.0% 20.0% 14.4% 1.3% 0.6% skip: 2.7%
x264 [info]: mb B I16..4: 0.2% 3.3% 0.4% B16..8: 34.7% 14.0% 3.7% direct:11.1% skip:32.5% L0:39.6% L1:36.7% BI:23.7%
x264 [info]: 8x8 transform intra:81.7% inter:55.9%
x264 [info]: direct mvs spatial:98.3% temporal:1.7%
x264 [info]: coded y,uvDC,uvAC intra: 92.7% 88.9% 66.7% inter: 34.1% 30.5% 5.8%
x264 [info]: i16 v,h,dc,p: 36% 6% 9% 49%
x264 [info]: i8 v,h,dc,ddl,ddr,vr,hd,vl,hu: 20% 7% 10% 7% 10% 14% 8% 14% 10%
x264 [info]: i4 v,h,dc,ddl,ddr,vr,hd,vl,hu: 19% 6% 5% 9% 13% 17% 9% 13% 9%
x264 [info]: i8c dc,h,v,p: 37% 17% 28% 18%
x264 [info]: Weighted P-Frames: Y:7.1% UV:6.3%
x264 [info]: ref P L0: 40.8% 10.3% 19.1% 6.7% 6.3% 3.7% 3.9% 2.2% 2.5% 1.8% 2.2% 0.4% 0.0%
x264 [info]: ref B L0: 82.4% 9.2% 3.0% 1.7% 1.1% 0.9% 0.7% 0.5% 0.4% 0.3%
x264 [info]: ref B L1: 96.4% 3.6%
x264 [info]: kb/s:2770.48
Общее
Полное имя : PEDALE DOUCE (1996) K_I.mkv
Формат : Matroska
Версия формата : Version 4 / Version 2
Размер файла : 2,16 Гбайт
Продолжительность : 1 ч. 37 м.
Общий поток : 3168 Кбит/сек
Название фильма : PEDALE DOUCE (1996) K_I
Дата кодирования : UTC 2017-02-10 23:19:50
Программа кодирования : mkvmerge v8.3.0 ('Over the Horizon') 64bit
Библиотека кодирования : libebml v1.3.1 + libmatroska v1.4.2
Attachments : img040.jpg
Видео
Идентификатор : 1
Формат : AVC
Формат/Информация : Advanced Video Codec
Профиль формата : [email protected]
Параметр CABAC формата : Да
Параметр ReFrames формата : 11 кадров
Идентификатор кодека : V_MPEG4/ISO/AVC
Продолжительность : 1 ч. 37 м.
Битрейт : 2771 Кбит/сек
Ширина : 720 пикселей
Высота : 556 пикселей
Соотношение сторон : 1,85:1
Режим частоты кадров : Постоянный
Частота кадров : 25,000 кадров/сек
Цветовое пространство : YUV
Субдискретизация насыщенности : 4:2:0
Битовая глубина : 8 бит
Тип развёртки : Прогрессивная
Бит/(Пиксели*Кадры) : 0.277
Размер потока : 1,89 Гбайт (87%)
Библиотека кодирования : x264 core 148 r2638 7599210
Настройки программы : cabac=1 / ref=11 / deblock=1:-2:-1 / analyse=0x3:0x133 / me=umh / subme=10 / psy=1 / psy_rd=1.00:0.20 / mixed_ref=1 / me_range=24 / chroma_me=1 / trellis=2 / 8x8dct=1 / cqm=0 / deadzone=21,11 / fast_pskip=1 / chroma_qp_offset=-3 / threads=12 / lookahead_threads=2 / sliced_threads=0 / nr=0 / decimate=1 / interlaced=0 / bluray_compat=0 / constrained_intra=0 / bframes=7 / b_pyramid=2 / b_adapt=2 / b_bias=0 / direct=3 / weightb=1 / open_gop=0 / weightp=2 / keyint=250 / keyint_min=25 / scenecut=40 / intra_refresh=0 / rc_lookahead=60 / rc=2pass / mbtree=1 / bitrate=2771 / ratetol=1.0 / qcomp=0.60 / qpmin=0 / qpmax=69 / qpstep=4 / cplxblur=20.0 / qblur=0.5 / ip_ratio=1.40 / aq=1:1.00
Default : Да
Forced : Нет
Аудио #1
Идентификатор : 2
Формат : AC-3
Формат/Информация : Audio Coding 3
Расширение режима : CM (complete main)
Параметр Endianness формата : Big
Идентификатор кодека : A_AC3
Продолжительность : 1 ч. 37 м.
Вид битрейта : Постоянный
Битрейт : 192 Кбит/сек
Каналы : 2 канала
Расположение каналов : Front: L R
Частота : 48,0 КГц
Частота кадров : 31,250 кадров/сек (1536 spf)
Битовая глубина : 16 бит
Метод сжатия : С потерями
Размер потока : 134 Мбайт (6%)
Язык : Russian
Default : Да
Forced : Нет
Аудио #2
Идентификатор : 3
Формат : AC-3
Формат/Информация : Audio Coding 3
Расширение режима : CM (complete main)
Параметр Endianness формата : Big
Идентификатор кодека : A_AC3
Продолжительность : 1 ч. 37 м.
Вид битрейта : Постоянный
Битрейт : 192 Кбит/сек
Каналы : 2 канала
Расположение каналов : Front: L R
Частота : 48,0 КГц
Частота кадров : 31,250 кадров/сек (1536 spf)
Битовая глубина : 16 бит
Метод сжатия : С потерями
Размер потока : 134 Мбайт (6%)
Язык : French
Default : Нет
Forced : Нет

Скриншот с названием фильма

Скриншоты





[jinwg81.com]_torrent-5355623.torrent
Торрент: Зарегистрирован ·  [ 2017-02-14 13:48 ] ·  ca216fcd8d6bcb43c5d1813c8d994ad09085cecf

11 KB

Статус: проверено
Скачан: 1 раз
Размер: 2.16 GB
Оценка: 
(Голосов: 0)
Сказали спасибо: 0  Спасибо
Похожие темы
[Профиль]    [ЛС]
Показать сообщения:    
Ответить на тему

Текущее время: Сегодня 22:11

Часовой пояс: GMT + 7



Вы не можете начинать темы
Вы не можете отвечать на сообщения
Вы не можете редактировать свои сообщения
Вы не можете удалять свои сообщения
Вы не можете голосовать в опросах
Вы не можете прикреплять файлы к сообщениям
Вы можете скачивать файлы