vol.9 ch.3
vol.9 ch.2

Юстиниан-подкидыш, или незаконнорожденный ребёнок / Justinien Trouvé, ou le bâtard de Dieu (Кристиан Фешнер / Christian Fechner) [1993, Франция, приключения, драма, экранизация, DVDRip] Sub Rus + Original Fre

Ответить на тему
Статистика раздачи [Обновить пиров]
Размер:  2.06 GB   |    Зарегистрирован:  1 год   |    Скачан:  0 раз

Полного источника не было: Никогда

 
   
 
 
 
Автор Сообщение

jinwg81.com

Создавать темы 14-Фев-2017 13:48

[Цитировать]

Юстиниан - подкидыш, или незаконнорожденный ребёнок Бога / Жюстиньен Подкидыш - незаконнорожденный ребёнок Бога / Justinien Trouvé, ou le bâtard de Dieu Страна: Франция
Жанр: приключения, драма, экранизация
Год выпуска: 1993
Продолжительность: 02:37:24
Перевод: Субтитры enoeno
Cубтитры: русские
Оригинальная аудиодорожка: французский
Режиссер: Кристиан Фешнер / Christian Fechner
В ролях: Пьер-Оливье Морна, Тикки Ольгадо, Бернар-Пьер Доннадье, Бернард Хэллер, Патрис Валота, Дидье Пэн, Ролан Бланш, Зук, Валери Стро, Чик Ортега, Морис Барье, Ева Суссан, Кэти Кригель, Максим Леруа, Бернар Фарси, Жан-Ги Фечнер, Жан Мартен, Мишель Пейрелон, Андре Жюльен, Жан-Клод Буйо, Марк Дюдикур, Анри Жене, Оливье Ашар, Клодин Башет, Франсуа Каде, Жак Эрлен, Матиас Юнг, Матиас Юнг, Николас Саймон, Пьер Машери, Жак Ле Карпентье
Описание: "Его рождение - тайна, его судьба - легенда" - слоган этого фильма. Экранизация романа (I часть книги) "Можем только Бог и мы" французского писателя Мишеля Фолько.
Франция, провинция Жеводан, Румегу. Правление короля Людовика XIV по прозвищу «Король-Солнце» (Le Roi Soleil). Однажды вечером 26 июля 1683 года, во время разбушевавшейся бури, у входа в один монастырь таинственный всадник оставляет грудного ребёнка. Привратник у дверей с ужасом обнаруживает, что нос у ребёнка вырван. Оказав малышу необходимую помощь, Главный Настоятель нарекает его Юстинианом-подкидышем и вверяет заботам супружеской пары Кутули, где муж - бывший моряк... Привязавшись к малышу, муж делает ему первый деревянный нос. Юстиниан взрослеет, и ему объявляют, что он должен стать монахом. Испугавшись трудностей предстоящей жизни, молодой человек сбегает, стащив с собой из монастыря нос Иисуса Христа. Он идёт навстречу своей судьбе и тайне, которые окружали его с самого рождения...
.
Доп. информация: За перевод и русские сабы большое спасибо enoeno!
Сэмпл: http://multi-up.com/1140082
Качество видео: DVDRip
Формат видео: AVI
Видео: XviD, 704x384 (1.85:1), 25.000 fps, 1667 kbps avg
Аудио: French AC3 Dolby Digital, 48 kHz, 2/0 (L,R) ch, 192.00 kbps avg
Формат субтитров: softsub (SRT)

MediaInfo

General
Complete name : E:\Justinien.Trouve.ou.le.Batard.de.Dieu.1993\Justinien.Trouve.ou.le.Batard.de.Dieu.1993.DVDRip.Fr.avi
Format : AVI
Format/Info : Audio Video Interleave
Format profile : OpenDML
File size : 2.06 GiB
Duration : 2 h 37 min
Overall bit rate : 1 871 kb/s
Writing application : VirtualDubMod 1.5.10.2 (build 2540/release)
Writing library : VirtualDubMod build 2540/release
Video
ID : 0
Format : MPEG-4 Visual
Format profile : Advanced [email protected]
Format settings, BVOP : 1
Format settings, QPel : No
Format settings, GMC : No warppoints
Format settings, Matrix : Default (MPEG)
Codec ID : XVID
Codec ID/Hint : XviD
Duration : 2 h 37 min
Bit rate : 1 666 kb/s
Width : 704 pixels
Height : 384 pixels
Display aspect ratio : 1.85:1
Frame rate : 25.000 FPS
Color space : YUV
Chroma subsampling : 4:2:0
Bit depth : 8 bits
Scan type : Progressive
Compression mode : Lossy
Bits/(Pixel*Frame) : 0.247
Stream size : 1.83 GiB (89%)
Writing library : XviD 1.2.1 (UTC 2008-12-04)
Audio
ID : 1
Format : AC-3
Format/Info : Audio Coding 3
Mode extension : CM (complete main)
Format settings, Endianness : Big
Codec ID : 2000
Duration : 2 h 37 min
Bit rate mode : Constant
Bit rate : 192 kb/s
Channel(s) : 2 channels
Channel positions : Front: L R
Sampling rate : 48.0 kHz
Frame rate : 31.250 FPS (1536 spf)
Bit depth : 16 bits
Compression mode : Lossy
Stream size : 216 MiB (10%)
Alignment : Split accross interleaves
Interleave, duration : 40 ms (1.00 video frame)
Interleave, preload duratio : 500 ms

Скриншоты

Фрагмент субтитров

8
00:06:31,664 --> 00:06:35,341
Я думаю, что он мертв...
Монсеньор.
9
00:06:38,427 --> 00:06:40,606
Нет! Он дышит, он дышит.
10
00:06:41,790 --> 00:06:45,196
Его нос... у него его нет... у него вырвали.
11
00:06:45,731 --> 00:06:47,838
Кто посмел совершать такую
мерзость, монсеньор?
12
00:06:48,214 --> 00:06:50,587
Откуда я знаю, кретин!
13
00:07:00,839 --> 00:07:02,856
Света, я не вижу.
14
00:07:15,893 --> 00:07:20,737
Это чудо, что после того, чему он подвергся,
он может спать также блаженно.
15
00:07:21,993 --> 00:07:25,230
Нет, нет, нет... он спит крепким сном.
16
00:07:26,438 --> 00:07:29,107
Он глух, как пень!
17
00:07:33,324 --> 00:07:34,949
Ему дали что-то одурманивающее.
18
00:07:48,155 --> 00:07:51,467
Деньги? Не может быть! Это золото!
19
00:07:54,756 --> 00:07:56,646
Вон!
20
00:08:10,713 --> 00:08:16,532
Он прекрасен, монсеньор, нет раздвоенных
копыт, много пальцев на ножках...
21
00:08:17,043 --> 00:08:24,436
нет рогов, и даже красивый,
здоровый и очень пухленький!
22
00:08:25,776 --> 00:08:26,964
Спаси его.
23
00:09:26,207 --> 00:09:27,957
Это, наверное, тот самый Гиллери
ему порезал нос?
24
00:09:28,266 --> 00:09:29,488
Гиллери не существует!
25
00:09:42,811 --> 00:09:44,826
Я собираюсь прижечь рану.
26
00:10:37,474 --> 00:10:40,147
Это кормилица с хорошей репутацией.
27
00:10:56,810 --> 00:10:59,202
Кто смог сделать такую ужасную вещь?
28
00:10:59,555 --> 00:11:01,873
Мы его нашли таким. Его рана была прижжена!
29
00:11:02,359 --> 00:11:04,946
Чего я не понимаю совсем,
это то, как он может спать?
30
00:11:07,976 --> 00:11:10,307
Совсем не удивительно, что
он спит столь хорошо...


[jinwg81.com]_torrent-5355403.torrent
Торрент: Зарегистрирован ·  [ 2017-02-14 13:48 ] ·  fe1d2bb8ffdfe44b9e04f0b3148234a8ed39dc2a

11 KB

Статус: проверено
Скачан: 0 раз
Размер: 2.06 GB
Оценка: 
(Голосов: 0)
Сказали спасибо: 0  Спасибо
Похожие темы
[Профиль]    [ЛС]
Показать сообщения:    
Ответить на тему

Текущее время: Сегодня 14:54

Часовой пояс: GMT + 7



Вы не можете начинать темы
Вы не можете отвечать на сообщения
Вы не можете редактировать свои сообщения
Вы не можете удалять свои сообщения
Вы не можете голосовать в опросах
Вы не можете прикреплять файлы к сообщениям
Вы можете скачивать файлы