The Big Fat Quiz of the Year (2010)
The Big Fat Quiz of the Year (2014)

Госпожа Бовари / Madame Bovary (Тим Файвелл / Tim Fywell) [2000, Великобритания, США, Мелодрама, драма, DVDRip] MVO

Ответить на тему
Статистика раздачи [Обновить пиров]
Размер:  1.45 GB   |    Зарегистрирован:  1 год   |    Скачан:  0 раз

Полного источника не было: Никогда

 
   
 
 
 
Автор Сообщение

jinwg81.com

Создавать темы 14-Фев-2017 13:49

[Цитировать]

Госпожа Бовари / Madame Bovary
Страна: Великобритания, США
Жанр: Мелодрама, драма
Год выпуска: 2000
Продолжительность: 01:16:08 + 01:17:30
Перевод: Профессиональный (многоголосый закадровый)
Cубтитры: нет
Оригинальная аудиодорожка: нет
Режиссер: Тим Файвелл / Tim Fywell
В ролях: Фрэнсис О’Коннор, Хью Бонневилль, Дэвид Тротон, Клер Хэкетт, Хью Дэнси, Грег Уайз, Кейт Баррон, Айлин Эткинс, Барбара Джеффорд, Дженни Хоу
Описание: Экранизация классика французской литературы Гюстава Флобера о судьбе Эммы Бовари — одной из самых романтичных и загадочных героинь 19-го века. Желание испытать по-настоящему «большое чувство» заставило эту энергичную, своенравную и увлекающуюся женщину забыть о муже и маленькой дочери и с головой ринуться в водоворот любовных страстей.
Ее романы, пристрастие к дорогим экстравагантным покупкам и стремление, несмотря ни на что, вести блестящий светский образ жизни разорили и разрушили семью. Все глубже запутываясь в долгах и собственных чувствах, Эмма готова принести себя в жертву, чтобы избежать позора и унижения…-

Доп. информация:

Библиотека Всемирной Литературы — уникальная коллекция дисков, в которой собраны прекрасные экранизации прославленных романов классиков европейской словесности Джейн Остин, Эмили Бронте, Уильяма Теккерея, Гюстава Флобера и др. Взору благодарных зрителей предстанет восхитительный мир Европы XIX века, мир красивых людей и высоких отношений.
Гюстав Флобер — один из величайших Западных романистов, блестящий стилист, оказавший огромноевлияние на всю последующую литературу и приведший в неё ряд талантливых авторов ( Ги де Мопассан и др.) Наиболее известен своим первым опубликованным романом «Госпожа Бовари» (1857). Работал в угрюмом одиночестве, иногда тратя неделю для завершения одной страницы. Этот колоссальный труд был вознагражден: сегодня работы Флобера признаны иконами стиля.
-Награды:

скрытый текст

Золотой глобус, 2001 год
Номинации (1):
Лучшая актриса мини-сериала или фильма на ТВ (Фрэнсис О’Коннор)
-
--Релиз от: -Сэмпл: http://yadi.sk/i/7zStXIuv3DVKdu-Внимание: Полная версия фильма!!!-Качество видео: DVDRip [url=viewtopic.php?t=2747270]Исходник[/url]
Формат видео: AVI
Видео: 640x352 (1.82:1), 25 fps, XviD build 65 ~1144 kbps avg, 0.20 bit/pixel
Аудио: 48 kHz, AC3 Dolby Digital, 2/0 (L,R) ch, ~192 kbps

MediaInfo-1

Общее
Полное имя : D:\(1)Madame Bovary (2000) DVDRip.avi
Формат : AVI
Формат/Информация : Audio Video Interleave
Размер файла : 733 Мбайт
Продолжительность : 1 ч. 16 м.
Общий поток : 1347 Кбит/сек
Название фильма : (1)Madame Bovary (2000) DVDRip
Режиссёр : Maksmet
Программа кодирования : VirtualDubModRus 1.5.10.2 (build 2542/release)
Формат оригинала/Имя : Movie
Примечание : 07.02.2017
Видео
Идентификатор : 0
Формат : MPEG-4 Visual
Профиль формата : Advanced [email protected]
Параметр BVOP формата : 1
Параметр QPel формата : Нет
Параметр GMC формата : Без точки перехода
Параметр матрицы формата : Выборочная
Идентификатор кодека : XVID
Идентификатор кодека/Подсказка : XviD
Продолжительность : 1 ч. 16 м.
Битрейт : 1145 Кбит/сек
Ширина : 640 пикселей
Высота : 352 пикселя
Соотношение сторон : 16:9
Частота кадров : 25,000 кадров/сек
Цветовое пространство : YUV
Субдискретизация насыщенности : 4:2:0
Битовая глубина : 8 бит
Тип развёртки : Прогрессивная
Метод сжатия : С потерями
Бит/(Пиксели*Кадры) : 0.203
Размер потока : 624 Мбайт (85%)
Библиотека кодирования : XviD 65
Аудио
Идентификатор : 1
Формат : AC-3
Формат/Информация : Audio Coding 3
Расширение режима : CM (complete main)
Параметр Endianness формата : Big
Идентификатор кодека : 2000
Продолжительность : 1 ч. 16 м.
Вид битрейта : Постоянный
Битрейт : 192 Кбит/сек
Каналы : 2 канала
Расположение каналов : Front: L R
Частота : 48,0 КГц
Частота кадров : 31,250 кадров/сек (1536 spf)
Метод сжатия : С потерями
Размер потока : 105 Мбайт (14%)
Выравнивание : Разделение по промежуткам
Продолжительность промежутка : 40 мс. (1,00 видеокадр)
Время предзагрузки промежутка : 500 мс.

-

MediaInfo-2

Общее
Полное имя : D:\Фильмы\Фильми в папках\Madame Bovary (2000) DVDRip\(2)Madame Bovary (2000) DVDRip.avi
Формат : AVI
Формат/Информация : Audio Video Interleave
Размер файла : 747 Мбайт
Продолжительность : 1 ч. 17 м.
Общий поток : 1347 Кбит/сек
Название фильма : (2)Madame Bovary (2000) DVDRip
Режиссёр : Maksmet
Программа кодирования : VirtualDubModRus 1.5.10.2 (build 2542/release)
Формат оригинала/Имя : Movie
Примечание : 07.02.2017
Видео
Идентификатор : 0
Формат : MPEG-4 Visual
Профиль формата : Advanced [email protected]
Параметр BVOP формата : 1
Параметр QPel формата : Нет
Параметр GMC формата : Без точки перехода
Параметр матрицы формата : Выборочная
Идентификатор кодека : XVID
Идентификатор кодека/Подсказка : XviD
Продолжительность : 1 ч. 17 м.
Битрейт : 1145 Кбит/сек
Ширина : 640 пикселей
Высота : 352 пикселя
Соотношение сторон : 16:9
Частота кадров : 25,000 кадров/сек
Цветовое пространство : YUV
Субдискретизация насыщенности : 4:2:0
Битовая глубина : 8 бит
Тип развёртки : Прогрессивная
Метод сжатия : С потерями
Бит/(Пиксели*Кадры) : 0.203
Размер потока : 635 Мбайт (85%)
Библиотека кодирования : XviD 65
Аудио
Идентификатор : 1
Формат : AC-3
Формат/Информация : Audio Coding 3
Расширение режима : CM (complete main)
Параметр Endianness формата : Big
Идентификатор кодека : 2000
Продолжительность : 1 ч. 17 м.
Вид битрейта : Постоянный
Битрейт : 192 Кбит/сек
Каналы : 2 канала
Расположение каналов : Front: L R
Частота : 48,0 КГц
Частота кадров : 31,250 кадров/сек (1536 spf)
Метод сжатия : С потерями
Размер потока : 106 Мбайт (14%)
Выравнивание : Разделение по промежуткам
Продолжительность промежутка : 40 мс. (1,00 видеокадр)
Время предзагрузки промежутка : 500 мс.

-

Скриншот c названием фильма

Скриншоты-1


-

Скриншоты-2



[jinwg81.com]_torrent-5354442.torrent
Торрент: Зарегистрирован ·  [ 2017-02-14 13:48 ] ·  8a94105e3e523e6e47801f7c13065abf132432f1

15 KB

Статус: проверено
Скачан: 0 раз
Размер: 1.45 GB
Оценка: 
(Голосов: 0)
Сказали спасибо: 0  Спасибо
Похожие темы
[Профиль]    [ЛС]
Показать сообщения:    
Ответить на тему

Текущее время: Сегодня 15:10

Часовой пояс: GMT + 7



Вы не можете начинать темы
Вы не можете отвечать на сообщения
Вы не можете редактировать свои сообщения
Вы не можете удалять свои сообщения
Вы не можете голосовать в опросах
Вы не можете прикреплять файлы к сообщениям
Вы можете скачивать файлы