Любой ценой / Любыми средствами / Whatever It Takes (Брэйди МакКензи / Brady MacKenzie) [1998, США, Боевик, DVDRip] DVO + AVO (А. Дольский ) + Original Eng

Ответить на тему
Статистика раздачи [Обновить пиров]
Размер:  1.4 GB   |    Зарегистрирован:  1 год   |    Скачан:  0 раз

Полного источника не было: Никогда

 
   
 
 
 
Автор Сообщение

jinwg81.com

Создавать темы 14-Фев-2017 13:49

[Цитировать]

Любой ценой / Любыми средствами / Whatever It Takes
Страна: США
Жанр: Боевик
Год выпуска: 1998
Продолжительность: 1:41:40
Перевод: Профессиональный (двухголосый закадровый)
Перевод 2: Авторский (одноголосый закадровый) А. Дольский
Cубтитры: нет
Оригинальная аудиодорожка: английский
Режиссер: Брэйди МакКензи / Brady MacKenzie
В ролях: Дон «Дракон» Уилсон, Эндрю Дайс Клэй, Фред Уильямсон, Майкл Бэйли Смит, Джо Сагал, Лесли Данон ,
Джон Нилсон
Описание: Детектив Нил Де Марко и его напарник Дэйв Менари специализируются на работе под прикрытием. Их новое задание: найти и перекрыть каналы поставок запрещенных допинговых препаратов в клубы бодибилдинга. Под видом культуриста Нил внедряется в «работающую» со спортивными клубами банду Поли Салано.
Этот крутой и безжалостный гангстер ради достижения своих целей готов уничтожить любого, кто встанет у него на пути. Тем более, когда на кону стоят миллионы долларов. В борьбе с таким коварным и жестоким противником годятся любые средства.
Доп. информация: За звуковую дорожку А. Дольского спасибо Rus-lan
Двухголосый перевод взял здесь [url=viewtopic.php?t=600936]http://torrentc/forum/viewtopic.php?t=600936[/url]
Видеоряд найден в сети
Сэмпл: http://yadi.sk/i/ys6NlVzc3D4paN
Качество видео: DVDRip
Формат видео: AVI
Видео: XviD , 640x480 (1.33:1) , 23.976 fps , 1 378 Kbps
Аудио: AC3 , 48 kHz , 192.00 kbps avg , 2/0 (L,R) ch
Аудио 2: AC3 , 48 kHz , 192.00 kbps avg , 2/0 (L,R) ch
Аудио 3: AC3 , 48 kHz , 192.00 kbps avg , 2/0 (L,R) ch

MediaInfo

Complete name Любой ценой 1998.avi
Format : AVI
Format/Info : Audio Video Interleave
File size : 1.40 GiB
Duration : 1h 41mn
Overall bit rate : 1 972 Kbps
Writing application : VirtualDubMod 1.5.10.3 | www.virtualdub-fr.org || (build 2550/release)
Writing library : VirtualDubMod build 2550/release
Video
ID : 0
Format : MPEG-4 Visual
Format profile : Advanced [email protected]
Format settings, BVOP : 1
Format settings, QPel : No
Format settings, GMC : No warppoints
Format settings, Matrix : Custom
Codec ID : XVID
Codec ID/Hint : XviD
Duration : 1h 41mn
Bit rate : 1 378 Kbps
Width : 640 pixels
Height : 480 pixels
Display aspect ratio : 4:3
Frame rate : 23.976 (23976/1000) fps
Color space : YUV
Chroma subsampling : 4:2:0
Bit depth : 8 bits
Scan type : Progressive
Compression mode : Lossy
Bits/(Pixel*Frame) : 0.187
Stream size : 1 002 MiB (70%)
Writing library : XviD 1.2.1 (UTC 2008-12-04)
Audio #1
ID : 1
Format : AC-3
Format/Info : Audio Coding 3
Mode extension : CM (complete main)
Format settings, Endianness : Big
Codec ID : 2000
Duration : 1h 41mn
Bit rate mode : Constant
Bit rate : 192 Kbps
Channel(s) : 2 channels
Channel positions : Front: L R
Sampling rate : 48.0 KHz
Frame rate : 31.250 fps (1536 spf)
Compression mode : Lossy
Stream size : 140 MiB (10%)
Alignment : Split accross interleaves
Interleave, duration : 42 ms (1.00 video frame)
Interleave, preload duratio : 500 ms
Audio #2
ID : 2
Format : AC-3
Format/Info : Audio Coding 3
Mode extension : CM (complete main)
Format settings, Endianness : Big
Codec ID : 2000
Duration : 1h 41mn
Bit rate mode : Constant
Bit rate : 192 Kbps
Channel(s) : 2 channels
Channel positions : Front: L R
Sampling rate : 48.0 KHz
Frame rate : 31.250 fps (1536 spf)
Compression mode : Lossy
Stream size : 140 MiB (10%)
Alignment : Split accross interleaves
Interleave, duration : 42 ms (1.00 video frame)
Interleave, preload duratio : 500 ms
Audio #3
ID : 3
Format : AC-3
Format/Info : Audio Coding 3
Mode extension : CM (complete main)
Format settings, Endianness : Big
Codec ID : 2000
Duration : 1h 41mn
Bit rate mode : Constant
Bit rate : 192 Kbps
Channel(s) : 2 channels
Channel positions : Front: L R
Sampling rate : 48.0 KHz
Frame rate : 31.250 fps (1536 spf)
Compression mode : Lossy
Stream size : 140 MiB (10%)
Alignment : Aligned on interleaves
Interleave, duration : 42 ms (1.00 video frame)
Interleave, preload duratio : 512 ms


[jinwg81.com]_torrent-5353106.torrent
Торрент: Зарегистрирован ·  [ 2017-02-14 13:48 ] ·  f862b25a13a6f4d85887e83ca0a84a51752829d5

15 KB

Статус: проверено
Скачан: 0 раз
Размер: 1.4 GB
Оценка: 
(Голосов: 0)
Сказали спасибо: 0  Спасибо
Похожие темы
[Профиль]    [ЛС]
Показать сообщения:    
Ответить на тему

Текущее время: Сегодня 16:16

Часовой пояс: GMT + 7



Вы не можете начинать темы
Вы не можете отвечать на сообщения
Вы не можете редактировать свои сообщения
Вы не можете удалять свои сообщения
Вы не можете голосовать в опросах
Вы не можете прикреплять файлы к сообщениям
Вы можете скачивать файлы