1 rponse
0 rponse

Исполнитель / Исполнение Приказа / Команда / Взрывная волна / В рамках приказа / Бригада / Порядок подчиненности / Chain Of Command (Дэвид Уорт / David Worth) [1994, США, Боевик, VHSRip] [Full Screen] AVO (Андрей Дольский)

Ответить на тему
Статистика раздачи [Обновить пиров]
Размер:  1.37 GB   |    Зарегистрирован:  1 год   |    Скачан:  0 раз

Полного источника не было: Никогда

 
   
 
 
 
Автор Сообщение

jinwg81.com

Создавать темы 14-Фев-2017 13:49

[Цитировать]

Исполнитель / Исполнение Приказа / Команда / Взрывная волна / В рамках приказа / Бригада / Порядок подчиненности / Chain Of Command
[Full Screen]
Страна: США
Жанр: Боевик
Год выпуска: 1994
Продолжительность: 01:32:04
Перевод: Авторский (одноголосый закадровый) Андрей Дольский
Cубтитры: нет
Режиссер: Дэвид Уорт / David Worth
В ролях: Майкл Дудикофф /Michael Dudikoff/, Тодд Кертис, Керен Тишмэн, Р. Ли Эрми /R. Lee Ermey/, Стив Гринстайн, Джек Эдалист, Илай Дэнкер /Eli Danker/
Описание: Аннотация от alenavova
Работник американской компании "Западная нефть", что в Арабских Эмиратах, бывший "зеленый берет" Мерил Росс (Дудикофф) мирно дулся на рабочем месте в карты. Это рядовое событие было жесточайшим образом прервано явлением арабских бандитов на территорию компании. Всех убили, все взорвали, в живых остался один Росс. Сами понимаете, что может сотворить "зеленый берет" в гневе. Вернее разрушить... На своем тернистом жизненном пути Росс встретил девушку - она работает, кажется, на Израиль. Предводитель бандитов - на ЦРУ. Сам Росс - на военную разведку США. Итого: за полтора часа экранного времени убита куча злодеев; разбито несколько машин и злодейских морд; захваченная в плен девица доблестно освобождена; похищен главарь мафии и мафиозный вертолет... В общем, весь джентльменский набор стандартного боевика соблюден и с честью выполнен!
Доп. информация: Оцифровка VHS (личный архив) и получение VHSRip alenavova
Эксклюзив для torrentc. При размещении данного релиза на других сайтах ссылка на автора
Релиз
Сэмпл: http://yadi.sk/i/Mt2cwbTz3BqQ2f
Качество видео: VHSRip
Формат видео: AVI
Видео: 704x528 (1.33:1), 25 fps, XviD build 73 ~1923 kbps avg, 0.21 bit/pixel
Аудио: 48 kHz, AC3 Dolby Digital, 2/0 (L,R) ch, ~192 kbps

MediaInfo

Исполнитель - Chain of Command [by alenavova].avi
Format : AVI
Format/Info : Audio Video Interleave
File size : 1.37 GiB
Duration : 1 h 32 min
Overall bit rate : 2 125 kb/s
Movie name : Исполнитель - Chain of Command [by alenavova]
Director : by alenavova
Writing application : VirtualDubMod 1.5.10.3 | www.virtualdub-fr.org || (build 2550/release)
Copyright : Edich2
Comment : torrentc
Video
ID : 0
Format : MPEG-4 Visual
Format profile : Advanced [email protected]
Format settings, BVOP : 1
Format settings, QPel : No
Format settings, GMC : No warppoints
Format settings, Matrix : Custom
Codec ID : XVID
Codec ID/Hint : XviD
Duration : 1 h 32 min
Bit rate : 1 924 kb/s
Width : 704 pixels
Height : 528 pixels
Display aspect ratio : 4:3
Frame rate : 25.000 FPS
Color space : YUV
Chroma subsampling : 4:2:0
Bit depth : 8 bits
Scan type : Progressive
Compression mode : Lossy
Bits/(Pixel*Frame) : 0.207
Stream size : 1.24 GiB (91%)
Writing library : XviD 73
Audio
ID : 1
Format : AC-3
Format/Info : Audio Coding 3
Mode extension : CM (complete main)
Format settings, Endianness : Big
Codec ID : 2000
Duration : 1 h 32 min
Bit rate mode : Constant
Bit rate : 192 kb/s
Channel(s) : 2 channels
Channel positions : Front: L R
Sampling rate : 48.0 kHz
Frame rate : 31.250 FPS (1536 spf)
Compression mode : Lossy
Stream size : 126 MiB (9%)
Alignment : Split accross interleaves
Interleave, duration : 40 ms (1.00 video frame)
Interleave, preload duratio : 500 ms

Скриншоты





[jinwg81.com]_torrent-5349610.torrent
Торрент: Зарегистрирован ·  [ 2017-02-14 13:48 ] ·  0ad4f0df2acb9176156f03770a576bc5654240f2

14 KB

Статус: проверено
Скачан: 0 раз
Размер: 1.37 GB
Оценка: 
(Голосов: 0)
Сказали спасибо: 0  Спасибо
Похожие темы
[Профиль]    [ЛС]
Показать сообщения:    
Ответить на тему

Текущее время: Сегодня 15:06

Часовой пояс: GMT + 7



Вы не можете начинать темы
Вы не можете отвечать на сообщения
Вы не можете редактировать свои сообщения
Вы не можете удалять свои сообщения
Вы не можете голосовать в опросах
Вы не можете прикреплять файлы к сообщениям
Вы можете скачивать файлы