Macrium Reflect
Land f x

Король воздуха: Золотая лига / Воздушный бутон 2: Золотой защитник / Air Bud: Golden Receiver (Ричард Мартин / Richard Martin) [1998, США, Канада, Детская спортивная комедия, DVDRip] AVO (Сергей Визгунов)

Ответить на тему
Статистика раздачи [Обновить пиров]
Размер:  1.37 GB   |    Зарегистрирован:  1 год   |    Скачан:  0 раз

Полного источника не было: Никогда

 
   
 
 
 
Автор Сообщение

jinwg81.com

Создавать темы 14-Фев-2017 13:49

[Цитировать]

Король воздуха: Золотая лига / Воздушный бутон 2: Золотой защитник / Air Bud: Golden Receiver
«Суперпёс в суперфинале!»
Страна: США, Канада
Жанр: Детская спортивная комедия
Год выпуска: 1998
Продолжительность: 01:35:17
Перевод: Авторский (одноголосый закадровый) Сергей Визгунов
Cубтитры: нет
Режиссер: Ричард Мартин / Richard Martin
В ролях: Тим Конуэй, Дик Мартин, Кевин Зегерс, Синтия Стивенсон, Грегори Харрисон, Нора Данн, Перри Анзилотти, Роберт Костанцо, Шейн Солберг, Сюзанн Ристич
Описание: Увидев, как самый спортивный пес Бадди ловко забрасывает мяч в баскетбольную корзину, парочка незадачливых циркачей решает похитить четвероногого чемпиона. А его хозяин Джош тем временем записывается в школьную команду по американскому футболу.
И, как всегда, Бадди приходит на помощь своему лучшему другу и спасает его команду от очередного позорного поражения, а затем ведет ее от победы к победе. Но жуликам-циркачам все же удается похитить пса-чемпиона, заманив Бадди в машину с мороженым.
Это просто катастрофа, ведь без него команде грозит поражение в суперфинале. Теперь лишь везение Джоша, смекалка Бадди и помощь его нового друга — уморительного шимпанзе Мортимера — могут спасти ситуацию!
Доп. информация: Дорожка с С. Визгуновым синхронизирована и наложена ale_x2008 при помощи Adobe Audition, Sony Vegas и VirtualDubMod.
За оцифрованную с VHS дорожку благодарим - buyanoff.vladimir

Релиз
Сэмпл: http://yadi.sk/i/jDWdcU0P3BN3q4
Качество видео: DVDRip
Формат видео: AVI
Видео: XviD build 73, 704x528 (1.33:1), 25 fps, 2062 kbps avg, 0.22 bit/pixel
Аудио: AC3 Dolby Digital, 48000Hz, 2/0 (mono) ch, 192.00 kbps avg

MediaInfo

Король воздуха - Золотая лига - Air Bud - Golden Receiver (by ale_x2008).avi
Format : AVI
Format/Info : Audio Video Interleave
File size : 1.37 GiB
Duration : 1 h 26 min
Overall bit rate : 2 264 kb/s
Movie name : Король воздуха - Золотая лига - Air Bud - Golden Receiver (by ale_x2008)
Director : by ale_x2008
Writing application : VirtualDubMod 1.5.10.3 (build 2550/release)
Copyright : Edich2
Comment : torrentc
Video
ID : 0
Format : MPEG-4 Visual
Format profile : Advanced [email protected]
Format settings, BVOP : 2
Format settings, QPel : No
Format settings, GMC : No warppoints
Format settings, Matrix : Custom
Codec ID : XVID
Codec ID/Hint : XviD
Duration : 1 h 26 min
Bit rate : 2 062 kb/s
Width : 704 pixels
Height : 528 pixels
Display aspect ratio : 4:3
Frame rate : 25.000 FPS
Color space : YUV
Chroma subsampling : 4:2:0
Bit depth : 8 bits
Scan type : Progressive
Compression mode : Lossy
Bits/(Pixel*Frame) : 0.222
Stream size : 1.24 GiB (91%)
Writing library : XviD 73
Audio
ID : 1
Format : AC-3
Format/Info : Audio Coding 3
Mode extension : CM (complete main)
Format settings, Endianness : Big
Codec ID : 2000
Duration : 1 h 26 min
Bit rate mode : Constant
Bit rate : 192 kb/s
Channel(s) : 2 channels
Channel positions : Front: L R
Sampling rate : 48.0 kHz
Frame rate : 31.250 FPS (1536 spf)
Compression mode : Lossy
Stream size : 119 MiB (8%)
Alignment : Split accross interleaves
Interleave, duration : 40 ms (1.00 video frame)
Interleave, preload duratio : 500 ms

Скриншоты




[jinwg81.com]_torrent-5294691.torrent
Торрент: Зарегистрирован ·  [ 2017-02-14 13:48 ] ·  a9dd1767345a47d151c3346e842b59bb36821740

14 KB

Статус: проверено
Скачан: 0 раз
Размер: 1.37 GB
Оценка: 
(Голосов: 0)
Сказали спасибо: 0  Спасибо
Похожие темы
[Профиль]    [ЛС]
Показать сообщения:    
Ответить на тему

Текущее время: Сегодня 14:39

Часовой пояс: GMT + 7



Вы не можете начинать темы
Вы не можете отвечать на сообщения
Вы не можете редактировать свои сообщения
Вы не можете удалять свои сообщения
Вы не можете голосовать в опросах
Вы не можете прикреплять файлы к сообщениям
Вы можете скачивать файлы