Неудержимые / Riders (Жерар Пирес / Gerard Pires) [2002, Канада, Франция, Великобритания, боевик, триллер, криминал, VHSRip] [Full Screen] DUB (Пирамида)

Ответить на тему
Статистика раздачи [Обновить пиров]
Размер:  1.37 GB   |    Зарегистрирован:  1 год   |    Скачан:  0 раз

Полного источника не было: Никогда

 
   
 
 
 
Автор Сообщение

jinwg81.com

Создавать темы 14-Фев-2017 19:18

[Цитировать]

Неудержимые / Riders
«Extrem hart - Extrem schnell - Extrem gefährlich»
[Full Screen]
Страна: Канада, Франция, Великобритания
Жанр: боевик, триллер, криминал
Год выхода: 2002
Продолжительность: 01:20:13.
Перевод: Профессиональный (полное дублирование) Пирамида
Cубтитры: нет
Режиссер: Жерар Пирес / Gerard Pires
В ролях: Стивен Дорфф, Наташа Хенстридж, Брюс Пэйн, Стивен Беркофф, Кле Беннетт, Карен Клише, Стивен МакКарти, Ален Голем, Андреас Апергис, Том МакКэмус...
Описание: 1. Они стремительны и неуловимы, сильны и бесстрашны! Для них не существует неприступных тайников и запертых сейфов! Они - первоклассные грабители банков. Их задача - за пять дней совершить пять ограблений и уйти на покой с 20 млн. долларов. Задача полиции - любой ценой поймать неразлучный криминальный квартет. Кто победит в этом головокружительным поединке - суровые блюстители закона или неудержимые экстремалы?
Крутой и стильный приключенческий боевик Жерара Пиреса ("Такси") с первых же кадров поражает гениальными режиссерскими находками, бешеным ритмом погонь и ярким калейдоскопом уникальных трюков. В этом захватывающем фильме для всех любителей хитроумных афер и крутых фильмов жанра "экшн" снялись известные актеры: Стивен Дорфф ("Блэйд", "Кровь и вино", "Космические дальнобойщики"), Наташа Хенстридж ("Призраки Марса", "Девять ярдов", "Особь 1, 2", "Адреналин"), Стивен Беркофф ("Ржавый алюминий", "Легионер", "Рэмбо 2", "Полицейский из Беверли-Хиллз"), Брюс Пэйн ("Подземелья и драконы", "Горец: Конец игры", "Британик").
2. От режиссера фильма "Такси"!
Банда из четырех молодых злоумышленников: Слима, Отиса, Фрэнка и Алекса, - осуществляет отважные вооруженные ограбления с высоким риском. Им всегда удается ускользать от полиции благодаря мастерству в экстремальных видах спорта. Ролики, подводное плавание, прыжки - все способы хороши, чтобы уйти от преследования! Слим, лидер группы, пытается организовать последнее дело, которое обеспечило бы им тихий уход в тень: пять ограблений за пять дней, и - с двадцатью миллионами долларов - на пенсию. Но на этот раз полиция намерена им помешать…
Доп. информация: Оцифровка лицензионной VHS (личный архив) и получение VHSRip alenavova
Эксклюзив для Torrentc.org. При размещении данного релиза на других сайтах ссылка на автора alenavova обязательна.

Релиз группы:
Сэмпл: http://yadi.sk/i/Y-bmLSQX3E2mbD
Качество видео: VHSRip
Формат файла: AVI
Видео: 704x528 (1.33:1), 25 fps, XviD build 73 ~2236 kbps avg, 0.24 bit/pixel
Аудио: 48 kHz, AC3 Dolby Digital, 2/0 (L,R) ch, ~192 kbps

MediaInfo

Неудержимые - Riders (by alenavova).avi
Format : AVI
Format/Info : Audio Video Interleave
File size : 1.37 GiB
Duration : 1 h 20 min
Overall bit rate : 2 438 kb/s
Movie name : Неудержимые - Riders (by alenavova)
Director : by alenavova
Writing application : VirtualDubMod 1.5.10.3 | www.virtualdub-fr.org || (build 2550/release)
Copyright : Edich2
Comment : Torrentc.org
Video
ID : 0
Format : MPEG-4 Visual
Format profile : Advanced [email protected]
Format settings, BVOP : 1
Format settings, QPel : No
Format settings, GMC : No warppoints
Format settings, Matrix : Custom
Codec ID : XVID
Codec ID/Hint : XviD
Duration : 1 h 20 min
Bit rate : 2 237 kb/s
Width : 704 pixels
Height : 528 pixels
Display aspect ratio : 4:3
Frame rate : 25.000 FPS
Color space : YUV
Chroma subsampling : 4:2:0
Bit depth : 8 bits
Scan type : Progressive
Compression mode : Lossy
Bits/(Pixel*Frame) : 0.241
Stream size : 1.25 GiB (92%)
Writing library : XviD 73
Audio
ID : 1
Format : AC-3
Format/Info : Audio Coding 3
Mode extension : CM (complete main)
Format settings, Endianness : Big
Codec ID : 2000
Duration : 1 h 20 min
Bit rate mode : Constant
Bit rate : 192 kb/s
Channel(s) : 2 channels
Channel positions : Front: L R
Sampling rate : 48.0 kHz
Frame rate : 31.250 FPS (1536 spf)
Bit depth : 16 bits
Compression mode : Lossy
Stream size : 110 MiB (8%)
Alignment : Split accross interleaves
Interleave, duration : 40 ms (1.00 video frame)
Interleave, preload duratio : 500 ms

Скриншоты





[jinwg81.com]_torrent-5356969.torrent
Торрент: Зарегистрирован ·  [ 2017-02-14 19:18 ] ·  6acd6220239752401b958c73e1296892dd40f0aa

14 KB

Статус: проверено
Скачан: 0 раз
Размер: 1.37 GB
Оценка: 
(Голосов: 0)
Сказали спасибо: 0  Спасибо
Похожие темы
[Профиль]    [ЛС]
Показать сообщения:    
Ответить на тему

Текущее время: Сегодня 16:42

Часовой пояс: GMT + 7



Вы не можете начинать темы
Вы не можете отвечать на сообщения
Вы не можете редактировать свои сообщения
Вы не можете удалять свои сообщения
Вы не можете голосовать в опросах
Вы не можете прикреплять файлы к сообщениям
Вы можете скачивать файлы