Гарри Поттер и философский камень / Harry Potter and the Sorcerer\'s Stone (Крис Коламбус / Chris Columbus) [2001, США, Великобритания, фэнтези, приключения, семейный, BDRip] AVO (Сергей Визгунов) - ранний и поздний + AVO (Андрей Дольский)

Ответить на тему
Статистика раздачи [Обновить пиров]
Размер:  2.39 GB   |    Зарегистрирован:  1 год   |    Скачан:  0 раз

Полного источника не было: Никогда

 
   
 
 
 
Автор Сообщение

jinwg81.com

Создавать темы 14-Фев-2017 19:18

[Цитировать]

Гарри Поттер и философский камень / Гарри Поттер и колдовской камень / Harry Potter and the Sorcerer's Stone
«Путешествие в твою мечту»
Страна: США, Великобритания
Жанр: фэнтези, приключения, семейный
Год выхода: 2001
Продолжительность: 02:32:21
Перевод: Авторский (одноголосый закадровый) Сергей Визгунов (ранний)
Перевод 2: Авторский (одноголосый закадровый) Сергей Визгунов (поздний)
Перевод 3: Авторский (одноголосый закадровый) Андрей Дольский (отдельным файлом)
Cубтитры: нет
Оригинальная аудиодорожка: нет
Режиссер: Крис Коламбус / Chris Columbus
В ролях: Дэниэл Рэдклифф, Руперт Гринт, Эмма Уотсон, Ричард Харрис, Алан Рикман, Мэгги Смит, Робби Колтрейн, Том Фелтон, Мэттью Льюис, Иэн Харт
Описание: Жизнь десятилетнего Гарри Поттера нельзя назвать сладкой: его родители умерли, едва ему исполнился год, а от дяди и тётки, взявших сироту на воспитание, достаются лишь тычки да подзатыльники. Но в одиннадцатый день рождения Гарри всё меняется. Странный гость, неожиданно появившийся на пороге, приносит письмо, из которого мальчик узнаёт, что на самом деле он чистокровный волшебник и принят в Хогвартс — школу магии. А уже через пару недель Гарри будет мчаться в поезде Хогвартс-экспресс навстречу новой жизни, где его ждут невероятные приключения, верные друзья и самое главное — ключ к разгадке тайны смерти его родителей.
Доп. информация: Дорожка с С. Визгуновым синхронизирована и наложена ale_x2008 при помощи Sony Vegas и VirtualDubMod.
За оцифрованную с VHS дорожку благодарим - d_rocker

Дорожка с С. Визгуновым (ранний) синхронизирована и наложена ale_x2008 при помощи Sony Vegas и VirtualDubMod.
За оцифрованную с VHS дорожку благодарим - RockNick

Дорожка с А. Дольским синхронизирована и наложена ale_x2008 при помощи Sony Vegas и VirtualDubMod.
За "предоставленную" дорожку благодарим watchtower2014
Релиз группы:
Сэмпл: http://yadi.sk/i/EI6Nd3OE3D3oze
Качество видео: BDRip
Формат файла: AVI
Видео: XviD build 73, 720x304 (2.37:1), 23.976 fps, 1650 kbps avg, 0.31 bit/pixel
Аудио: AC3 Dolby Digital, 48000Hz, 2/0 (L,R) ch (mono), 192.00 kbps avg
Аудио 2: AC3 Dolby Digital, 48000Hz, 2/0 (L,R) ch (mono), 192.00 kbps avg
Аудио 3: AC3 Dolby Digital, 48000Hz, 2/0 (L,R) ch (mono), 192.00 kbps avg

MediaInfo

Гарри Поттер и философский камень - Harry Potter and the Sorcerer's Stone [by ale_x2008] fix.avi
Format : AVI
Format/Info : Audio Video Interleave
Format profile : OpenDML
File size : 2.18 GiB
Duration : 2 h 32 min
Overall bit rate : 2 053 kb/s
Movie name : Гарри Поттер и философский камень - Harry Potter and the Sorcerer's Stone [by ale_x2008]
Director : by ale_x2008
Writing application : VirtualDubMod 1.5.10.2 (build 2540/release)
Writing library : VirtualDubMod build 2540/release
Copyright : Edich2
Comment : Torrentc.org
Video
ID : 0
Format : MPEG-4 Visual
Format profile : Advanced [email protected]
Format settings, BVOP : 1
Format settings, QPel : No
Format settings, GMC : No warppoints
Format settings, Matrix : Custom
Codec ID : XVID
Codec ID/Hint : XviD
Duration : 2 h 32 min
Bit rate : 1 651 kb/s
Width : 720 pixels
Height : 304 pixels
Display aspect ratio : 2.35:1
Frame rate : 23.976 (24000/1001) FPS
Color space : YUV
Chroma subsampling : 4:2:0
Bit depth : 8 bits
Scan type : Progressive
Compression mode : Lossy
Bits/(Pixel*Frame) : 0.315
Stream size : 1.76 GiB (80%)
Writing library : XviD 73
Audio #1
ID : 1
Format : AC-3
Format/Info : Audio Coding 3
Mode extension : CM (complete main)
Format settings, Endianness : Big
Codec ID : 2000
Duration : 2 h 32 min
Bit rate mode : Constant
Bit rate : 192 kb/s
Channel(s) : 2 channels
Channel positions : Front: L R
Sampling rate : 48.0 kHz
Frame rate : 31.250 FPS (1536 spf)
Bit depth : 16 bits
Compression mode : Lossy
Stream size : 209 MiB (9%)
Alignment : Split accross interleaves
Interleave, duration : 42 ms (1.00 video frame)
Interleave, preload duratio : 500 ms
Audio #2
ID : 2
Format : AC-3
Format/Info : Audio Coding 3
Mode extension : CM (complete main)
Format settings, Endianness : Big
Codec ID : 2000
Duration : 2 h 32 min
Bit rate mode : Constant
Bit rate : 192 kb/s
Channel(s) : 2 channels
Channel positions : Front: L R
Sampling rate : 48.0 kHz
Frame rate : 31.250 FPS (1536 spf)
Bit depth : 16 bits
Compression mode : Lossy
Stream size : 209 MiB (9%)
Alignment : Split accross interleaves
Interleave, duration : 42 ms (1.00 video frame)
Interleave, preload duratio : 500 ms

Скриншоты


ТОРРЕНТ ПЕРЕЗАЛИТ.
ДОБАВЛЕНА ДОРОЖКА С ПЕРЕВОДОМ ДОЛЬСКОГО.


[jinwg81.com]_torrent-5340775.torrent
Торрент: Зарегистрирован ·  [ 2017-02-14 19:18 ] ·  e5304e26e22ac9ac45a8503334bb8fa2daa44879

13 KB

Статус: проверено
Скачан: 0 раз
Размер: 2.39 GB
Оценка: 
(Голосов: 0)
Сказали спасибо: 0  Спасибо
Похожие темы
[Профиль]    [ЛС]
Показать сообщения:    
Ответить на тему

Текущее время: Сегодня 16:35

Часовой пояс: GMT + 7



Вы не можете начинать темы
Вы не можете отвечать на сообщения
Вы не можете редактировать свои сообщения
Вы не можете удалять свои сообщения
Вы не можете голосовать в опросах
Вы не можете прикреплять файлы к сообщениям
Вы можете скачивать файлы