INU - 006
女生喊了

Страсти по Лютеру / Лютер / Luther (Эрик Тилл / Eric Till) [2003, Германия, драма, биография, история, BDRip-AVC] Dub + MVO + Original Eng + Sub (Rus, Eng)

Ответить на тему
Статистика раздачи [Обновить пиров]
Размер:  2.83 GB   |    Зарегистрирован:  1 год   |    Скачан:  0 раз

Полного источника не было: Никогда

 
   
 
 
 
Автор Сообщение

jinwg81.com

Создавать темы 14-Фев-2017 19:18

[Цитировать]

Страсти по Лютеру / Лютер / Luther- Страна: Германия
Жанр: драма, биография, история
Год выхода: 2003
Продолжительность: 02:03:22
Перевод 1: Профессиональный (дублированный)
Перевод 2: Профессиональный (многоголосый закадровый)
Cубтитры: русские, английские
Оригинальная аудиодорожка: английский
Режиссер: Эрик Тилл / Eric Till
В ролях: Джозеф Файнс, Альфред Молина, Джонатан Фёрт, Клер Кокс, Питер Устинов, Бруно Ганц, Уве Оксенкнехт, Матьё Карьер, Бенжамин Сэдлер, Йохен Хорст
Описание: Задавшись вопросом о том, как служение богу «отцов» католической церкви соответствует Священному Писанию, простой монах Мартин Лютер, «увидел свет истины». Прибив свои ставшие достоянием истории «95 тезисов» к воротам собора в Виттенберге, он решительно осудил раздачу индульгенций, дававшую немалые доходы в церковную казну, и был объявлен еретиком и богохульником. Удалившись в изгнание, Лютер перевел Священное Писание на немецкий язык, чтобы простой народ смог получить прямой доступ к Слову Божьему. Тем временем, его последователи начали настоящую войну против католической церкви…
Сэмпл: http://sendfile.su/1303105
[img]http://rating.kinopoisk.ru/9269.gif[/img]
Качество видео: BDRip-AVC ([url=viewtopic.php?t=3458531]Страсти по Лютеру [1080p] 2003 BDRemux[/url])
Формат файла: MKV
Видео: x264, 1036x584 (16:9) 24 fps, ~2195 kbps, 0,151 bit/pixel
Аудио 1: 48 kHz, AC3, 2/0 (L,R) ch, ~192 kbps avg | Дубляж
Аудио 2: 48 kHz, AC3 Dolby Digital, 3/2 (L,C,R,l,r) + LFE ch, ~448 kbps | Екатеринбург Арт
Аудио 3: 48 kHz, AC3 Dolby Digital, 3/2 (L,C,R,l,r) + LFE ch, ~448 kbps | Английский
Формат файла субтитров: softsub (SRT)

MediaInfo

General
Unique ID : 170721679545748444686047651551399296872 (0x806FCCAAAD4DE4DABEA81B84219EBF68)
Format : Matroska
Format version : Version 4 / Version 2
File size : 2.83 GiB
Duration : 2h 3mn
Overall bit rate : 3 285 Kbps
Encoded date : UTC 2017-01-28 05:41:37
Writing application : mkvmerge v9.8.0 ('Kuglblids') 64bit
Writing library : libebml v1.3.4 + libmatroska v1.4.5
Video #1
ID : 1
Format : AVC
Format/Info : Advanced Video Codec
Format profile : [email protected]
Format settings, CABAC : Yes
Format settings, ReFrames : 11 frames
Codec ID : V_MPEG4/ISO/AVC
Duration : 2h 3mn
Bit rate : 2 195 Kbps
Width : 1 036 pixels
Height : 584 pixels
Display aspect ratio : 16:9
Frame rate mode : Constant
Frame rate : 24.000 fps
Color space : YUV
Chroma subsampling : 4:2:0
Bit depth : 8 bits
Scan type : Progressive
Bits/(Pixel*Frame) : 0.151
Stream size : 1.89 GiB (67%)
Writing library : x264 core 146 r2538 121396c
Encoding settings : cabac=1 / ref=11 / deblock=1:-3:-2 / analyse=0x3:0x113 / me=umh / subme=10 / psy=1 / psy_rd=1.00:0.00 / mixed_ref=1 / me_range=32 / chroma_me=1 / trellis=2 / 8x8dct=1 / cqm=0 / deadzone=21,11 / fast_pskip=1 / chroma_qp_offset=-2 / threads=6 / lookahead_threads=1 / sliced_threads=0 / nr=0 / decimate=1 / interlaced=0 / bluray_compat=0 / constrained_intra=0 / bframes=10 / b_pyramid=2 / b_adapt=2 / b_bias=0 / direct=1 / weightb=1 / open_gop=0 / weightp=2 / keyint=250 / keyint_min=23 / scenecut=40 / intra_refresh=0 / rc_lookahead=50 / rc=2pass / mbtree=1 / bitrate=2195 / ratetol=1.0 / qcomp=0.60 / qpmin=0 / qpmax=69 / qpstep=4 / cplxblur=20.0 / qblur=0.5 / ip_ratio=1.40 / aq=3:1.00
Language : English
Default : Yes
Forced : No
Audio #2
ID : 2
Format : AC-3
Format/Info : Audio Coding 3
Mode extension : CM (complete main)
Format settings, Endianness : Big
Codec ID : A_AC3
Duration : 2h 3mn
Bit rate mode : Constant
Bit rate : 192 Kbps
Channel(s) : 2 channels
Channel positions : Front: L R
Sampling rate : 48.0 KHz
Frame rate : 31.250 fps (1536 spf)
Compression mode : Lossy
Stream size : 169 MiB (6%)
Title : дубляж
Language : Russian
Default : Yes
Forced : No
Audio #3
ID : 3
Format : AC-3
Format/Info : Audio Coding 3
Mode extension : CM (complete main)
Format settings, Endianness : Big
Codec ID : A_AC3
Duration : 2h 3mn
Bit rate mode : Constant
Bit rate : 448 Kbps
Channel(s) : 6 channels
Channel positions : Front: L C R, Side: L R, LFE
Sampling rate : 48.0 KHz
Frame rate : 31.250 fps (1536 spf)
Compression mode : Lossy
Stream size : 395 MiB (14%)
Title : многоголосый (ЕА)
Language : Russian
Default : No
Forced : No
Audio #4
ID : 4
Format : AC-3
Format/Info : Audio Coding 3
Mode extension : CM (complete main)
Format settings, Endianness : Big
Codec ID : A_AC3
Duration : 2h 3mn
Bit rate mode : Constant
Bit rate : 448 Kbps
Channel(s) : 6 channels
Channel positions : Front: L C R, Side: L R, LFE
Sampling rate : 48.0 KHz
Frame rate : 31.250 fps (1536 spf)
Compression mode : Lossy
Stream size : 395 MiB (14%)
Language : English
Default : No
Forced : No
Text #5
ID : 5
Format : UTF-8
Codec ID : S_TEXT/UTF8
Codec ID/Info : UTF-8 Plain Text
Duration : 1h 55mn
Bit rate : 91 bps
Count of elements : 1326
Stream size : 77.4 KiB (0%)
Language : Russian
Default : Yes
Forced : No
Text #6
ID : 6
Format : UTF-8
Codec ID : S_TEXT/UTF8
Codec ID/Info : UTF-8 Plain Text
Duration : 1h 53mn
Bit rate : 55 bps
Count of elements : 1429
Stream size : 46.0 KiB (0%)
Language : English
Default : No
Forced : No

лог

raw [info]: 1036x584p 1:1 @ 10000000/416667 fps (cfr)
x264 [info]: using SAR=1/1
x264 [info]: using cpu capabilities: MMX2 SSE2Fast SSSE3 SSE4.2 AVX XOP FMA4 FMA3 LZCNT BMI1
x264 [info]: profile High, level 4.1
x264 [info]: frame I:1418 Avg QP:15.89 size:101826
x264 [info]: frame P:37681 Avg QP:19.10 size: 27267
x264 [info]: frame B:138552 Avg QP:22.56 size: 6198
x264 [info]: consecutive B-frames: 2.0% 2.1% 7.2% 16.7% 19.6% 43.9% 5.5% 1.5% 0.8% 0.3% 0.4%
x264 [info]: mb I I16..4: 4.5% 80.2% 15.3%
x264 [info]: mb P I16..4: 0.7% 7.9% 1.1% P16..4: 39.0% 26.4% 15.1% 0.0% 0.0% skip: 9.7%
x264 [info]: mb B I16..4: 0.0% 0.5% 0.1% B16..8: 38.8% 7.6% 2.0% direct: 3.7% skip:47.3% L0:44.3% L1:46.6% BI: 9.1%
x264 [info]: 8x8 transform intra:81.4% inter:64.2%
x264 [info]: coded y,uvDC,uvAC intra: 87.1% 69.7% 35.5% inter: 21.3% 11.1% 0.6%
x264 [info]: i16 v,h,dc,p: 51% 13% 10% 26%
x264 [info]: i8 v,h,dc,ddl,ddr,vr,hd,vl,hu: 13% 7% 8% 10% 14% 14% 12% 11% 11%
x264 [info]: i4 v,h,dc,ddl,ddr,vr,hd,vl,hu: 13% 6% 5% 9% 15% 15% 13% 12% 11%
x264 [info]: i8c dc,h,v,p: 41% 24% 21% 14%
x264 [info]: Weighted P-Frames: Y:4.3% UV:0.7%
x264 [info]: ref P L0: 40.7% 12.4% 19.2% 6.3% 6.1% 3.9% 4.0% 1.9% 2.0% 1.5% 1.7% 0.3% 0.0%
x264 [info]: ref B L0: 73.6% 11.7% 5.2% 2.8% 1.9% 1.8% 1.3% 0.9% 0.5% 0.3%
x264 [info]: ref B L1: 93.7% 6.3%
x264 [info]: kb/s:2194.66
x264 [total]: encoded 177651 frames, 8.72 fps, 2194.66 kb/s

Скриншоты




[jinwg81.com]_torrent-5348367.torrent
Торрент: Зарегистрирован ·  [ 2017-02-14 19:18 ] ·  97abd2c39cca9bedcc913e47b25996452978e4c0

15 KB

Статус: проверено
Скачан: 0 раз
Размер: 2.83 GB
Оценка: 
(Голосов: 0)
Сказали спасибо: 0  Спасибо
Похожие темы
[Профиль]    [ЛС]
Показать сообщения:    
Ответить на тему

Текущее время: Сегодня 22:23

Часовой пояс: GMT + 7



Вы не можете начинать темы
Вы не можете отвечать на сообщения
Вы не можете редактировать свои сообщения
Вы не можете удалять свои сообщения
Вы не можете голосовать в опросах
Вы не можете прикреплять файлы к сообщениям
Вы можете скачивать файлы