Fullmetal Alchemist: Brotherhood | 480p | BDRip | Dual Audio
Fullmetal Alchemist: Brotherhood | 720p | BDRip | Dual Audio

Правила секса / The Rules of Attraction (Роджер Эвэри / Roger Avary) [2002, США, молодежная сатирическая трагикомедия, BDRip-AVC] Dub + Original Eng + Sub (Rus, Eng)

Ответить на тему
Статистика раздачи [Обновить пиров]
Размер:  2.91 GB   |    Зарегистрирован:  1 год   |    Скачан:  0 раз

Полного источника не было: Никогда

 
   
 
 
 
Автор Сообщение

jinwg81.com

Создавать темы 14-Фев-2017 19:18

[Цитировать]

Правила секса / The Rules of Attraction- Страна: США
Жанр: молодежная сатирическая трагикомедия
Год выхода: 2002
Продолжительность: 01:50:43
Перевод: Профессиональный (дублированный)
Cубтитры: русские, английские
Оригинальная аудиодорожка: английский
Режиссер: Роджер Эвэри / Roger Avary
В ролях: Джеймс Ван Дер Бик, Шаннин Соссамон, Джессика Бил, Кип Парду, Кейт Босворт, Йен Сомерхалдер, Джоэль Майкли, Джей Барушель, Томас Йен Николас, Клифтон Коллинз мл.
Описание: В престижном колледже Кэмден веселятся до упада и пьют за пятерых. Здесь новичку не дадут ни на минуту расслабиться экстравагантные вечеринки и экстремальные приколы, которым, кажется, нет конца. Влюбляясь и изменяя друг другу, ссорясь и сводя счеты с жизнью, местная богема спешит досконально изучить все запретные страсти и пороки, помня основной закон: здесь не зря проведет время лишь тот, кто усвоит непростые правила бесшабашного секса...
Сэмпл: http://sendfile.su/1302135
[img]http://rating.kinopoisk.ru/810.gif[/img]
Качество видео: BDRip-AVC ([url=viewtopic.php?t=1729974]Правила секса 2002 1080p BDRemux[/url])
Формат файла: MKV
Видео: x264, 1088x612 (16:9) 23,976 fps, ~2930 kbps, 0,184 bit/pixel
Аудио 1: 48 kHz, AC3 Dolby Digital, 3/2 (L,C,R,l,r) + LFE ch, ~384 kbps [русский]
Аудио 2: 48 kHz, AC3 Dolby Digital, 3/2 (L,C,R,l,r) + LFE ch, ~448 kbps [английский]
Формат файла субтитров: softsub (SRT)

MediaInfo

General
Unique ID : 245310779480506621459501333464605548739 (0xB88D2338FBC228C1B81C255B644060C3)
Format : Matroska
Format version : Version 4 / Version 2
File size : 2.91 GiB
Duration : 1h 50mn
Overall bit rate : 3 764 Kbps
Encoded date : UTC 2017-01-24 12:51:28
Writing application : mkvmerge v9.7.1 ('Pandemonium') 64bit
Writing library : libebml v1.3.4 + libmatroska v1.4.5
Video #1
ID : 1
Format : AVC
Format/Info : Advanced Video Codec
Format profile : [email protected]
Format settings, CABAC : Yes
Format settings, ReFrames : 13 frames
Codec ID : V_MPEG4/ISO/AVC
Duration : 1h 50mn
Bit rate : 2 930 Kbps
Width : 1 088 pixels
Height : 612 pixels
Display aspect ratio : 16:9
Frame rate mode : Constant
Frame rate : 23.976 (24000/1001) fps
Color space : YUV
Chroma subsampling : 4:2:0
Bit depth : 8 bits
Scan type : Progressive
Bits/(Pixel*Frame) : 0.184
Stream size : 2.27 GiB (78%)
Writing library : x264 core 146 r2538 121396c
Encoding settings : cabac=1 / ref=13 / deblock=1:-3:-2 / analyse=0x3:0x113 / me=umh / subme=10 / psy=1 / psy_rd=1.00:0.00 / mixed_ref=1 / me_range=32 / chroma_me=1 / trellis=2 / 8x8dct=1 / cqm=0 / deadzone=21,11 / fast_pskip=1 / chroma_qp_offset=-2 / threads=6 / lookahead_threads=1 / sliced_threads=0 / nr=0 / decimate=1 / interlaced=0 / bluray_compat=0 / constrained_intra=0 / bframes=13 / b_pyramid=2 / b_adapt=2 / b_bias=0 / direct=1 / weightb=1 / open_gop=0 / weightp=2 / keyint=250 / keyint_min=23 / scenecut=40 / intra_refresh=0 / rc_lookahead=50 / rc=2pass / mbtree=1 / bitrate=2930 / ratetol=1.0 / qcomp=0.60 / qpmin=0 / qpmax=69 / qpstep=4 / cplxblur=20.0 / qblur=0.5 / ip_ratio=1.40 / aq=3:1.00
Language : English
Default : Yes
Forced : No
Audio #2
ID : 2
Format : AC-3
Format/Info : Audio Coding 3
Mode extension : CM (complete main)
Format settings, Endianness : Big
Codec ID : A_AC3
Duration : 1h 50mn
Bit rate mode : Constant
Bit rate : 384 Kbps
Channel(s) : 6 channels
Channel positions : Front: L C R, Side: L R, LFE
Sampling rate : 48.0 KHz
Frame rate : 31.250 fps (1536 spf)
Compression mode : Lossy
Stream size : 304 MiB (10%)
Language : Russian
Default : Yes
Forced : No
Audio #3
ID : 3
Format : AC-3
Format/Info : Audio Coding 3
Mode extension : CM (complete main)
Format settings, Endianness : Big
Codec ID : A_AC3
Duration : 1h 50mn
Bit rate mode : Constant
Bit rate : 448 Kbps
Channel(s) : 6 channels
Channel positions : Front: L C R, Side: L R, LFE
Sampling rate : 48.0 KHz
Frame rate : 31.250 fps (1536 spf)
Compression mode : Lossy
Stream size : 355 MiB (12%)
Language : English
Default : No
Forced : No
Text #4
ID : 4
Format : UTF-8
Codec ID : S_TEXT/UTF8
Codec ID/Info : UTF-8 Plain Text
Duration : 1h 46mn
Bit rate : 83 bps
Count of elements : 906
Stream size : 65.0 KiB (0%)
Language : Russian
Default : Yes
Forced : No
Text #5
ID : 5
Format : UTF-8
Codec ID : S_TEXT/UTF8
Codec ID/Info : UTF-8 Plain Text
Duration : 1h 50mn
Bit rate : 54 bps
Count of elements : 1071
Stream size : 43.9 KiB (0%)
Language : English
Default : No
Forced : No

лог

raw [info]: 1088x612p 1:1 @ 24000/1001 fps (cfr)
x264 [info]: using SAR=1/1
x264 [warning]: DPB size (13 frames, 34476 mbs) > level limit (12 frames, 32768 mbs)
x264 [info]: using cpu capabilities: MMX2 SSE2Fast SSSE3 SSE4.2 AVX XOP FMA4 FMA3 LZCNT BMI1
x264 [info]: profile High, level 4.1
x264 [info]: frame I:1059 Avg QP:16.38 size: 85743
x264 [info]: frame P:32896 Avg QP:19.40 size: 27449
x264 [info]: frame B:125323 Avg QP:21.99 size: 11481
x264 [info]: consecutive B-frames: 1.9% 2.8% 9.2% 9.0% 7.6% 61.1% 4.2% 0.8% 0.9% 0.2% 0.4% 1.3% 0.2% 0.4%
x264 [info]: mb I I16..4: 8.0% 73.1% 18.9%
x264 [info]: mb P I16..4: 1.8% 10.9% 1.7% P16..4: 41.3% 23.6% 11.6% 0.0% 0.0% skip: 9.1%
x264 [info]: mb B I16..4: 0.1% 1.1% 0.2% B16..8: 43.4% 12.9% 2.7% direct: 7.5% skip:32.0% L0:49.3% L1:43.3% BI: 7.4%
x264 [info]: 8x8 transform intra:76.0% inter:71.9%
x264 [info]: coded y,uvDC,uvAC intra: 77.6% 79.2% 49.4% inter: 30.9% 29.6% 6.0%
x264 [info]: i16 v,h,dc,p: 51% 13% 7% 30%
x264 [info]: i8 v,h,dc,ddl,ddr,vr,hd,vl,hu: 13% 7% 7% 9% 14% 14% 13% 12% 11%
x264 [info]: i4 v,h,dc,ddl,ddr,vr,hd,vl,hu: 21% 7% 4% 8% 14% 14% 12% 10% 10%
x264 [info]: i8c dc,h,v,p: 42% 22% 19% 17%
x264 [info]: Weighted P-Frames: Y:4.7% UV:2.9%
x264 [info]: ref P L0: 37.0% 8.9% 18.3% 7.2% 6.7% 4.6% 4.6% 2.5% 2.5% 1.9% 2.0% 1.7% 1.8% 0.3% 0.0%
x264 [info]: ref B L0: 58.4% 14.4% 8.2% 4.6% 3.5% 3.1% 2.5% 1.6% 1.4% 1.3% 0.8% 0.4%
x264 [info]: ref B L1: 89.3% 10.7%
x264 [info]: kb/s:2929.39
x264 [total]: encoded 159278 frames, 5.94 fps, 2929.39 kb/s

Скриншоты




[jinwg81.com]_torrent-5346869.torrent
Торрент: Зарегистрирован ·  [ 2017-02-14 19:18 ] ·  8a9635551430f9567ab9dd58f39dd1fb0e8d565e

15 KB

Статус: проверено
Скачан: 0 раз
Размер: 2.91 GB
Оценка: 
(Голосов: 0)
Сказали спасибо: 0  Спасибо
Похожие темы
[Профиль]    [ЛС]
Показать сообщения:    
Ответить на тему

Текущее время: Сегодня 14:55

Часовой пояс: GMT + 7



Вы не можете начинать темы
Вы не можете отвечать на сообщения
Вы не можете редактировать свои сообщения
Вы не можете удалять свои сообщения
Вы не можете голосовать в опросах
Вы не можете прикреплять файлы к сообщениям
Вы можете скачивать файлы