What-a-Mess
Whatever Happened to Robot Jones?

Недетское кино / Not Another Teen Movie (Джоел Галлен / Joel Gallen) [2001, США, комедия, BDRip] [Театральная версия / Theatrical Cut] 5 х MVO + Sub (Rus, Eng) + Original Eng

Ответить на тему
Статистика раздачи [Обновить пиров]
Размер:  2.3 GB   |    Зарегистрирован:  1 год   |    Скачан:  0 раз

Полного источника не было: Никогда

 
   
 
 
 
Автор Сообщение

jinwg81.com

Создавать темы 14-Фев-2017 19:18

[Цитировать]

Недетское кино / Not Another Teen Movie-Театральная версия / Theatrical Cut
Страна: США
Студия: Columbia Pictures Corporation, Original Film, Neal H. Moritz Productions
Жанр: комедия
Год выхода: 2001
Продолжительность: 01:29:00
Перевод 1: Профессиональный (многоголосый закадровый) Видео-Сервис Video CD
Перевод 2: Профессиональный (многоголосый закадровый) Неопознанный
Перевод 3: Профессиональный (многоголосый закадровый) Неопознанный 2
Перевод 4: Профессиональный (многоголосый закадровый) Видео-Сервис DVD9
Перевод 5: Профессиональный (многоголосый закадровый) Видео-Сервис DVD5
Cубтитры: русские, английские
Оригинальная аудиодорожка: английский
Режиссер: Джоел Галлен / Joel Gallen
В ролях: Кайлер Ли, Крис Эванс, Джейми Прессли, Эрик Кристиан Олсен, Миа Киршнер, Дион Ричмонд, Эрик Джангманн, Рон Лестер, Коди МакМейнс, Сэм Хантингтон
Описание: Популярный в школе парень и звезда футбольной команды Джейк Уилер, ослепленный собственной славой и успехом, заключает пари со своими друзьями.
Уилер делает ставку на то, что может сделать из любой девушки, посещающей их школу королеву школьного бала. Друзья сразу же выбирают предмет своей шутки — внешне малопривлекательную начинающую художницу Джэни Бриггс, чей комбинезон всегда в краске, которая носит очки и собирает свои волосы в «хвост». Джэни является изгоем в своем классе, однако пройдя через ряд событий, Уиллер понимает, что он любит этого «гадкого утенка»…
Автор рипа: Sem-te
Релиз группы: :

Качество видео: [url=viewtopic.php?t=5340840]BD[/url]Rip (Источник: Torrentc.org Sem-te | BDRemux 1080p)
Формат файла: AVI
Видео: 720x384 (1.88:1), 23.976 fps, XviD build 73 ~1732 kbps avg, 0.26 bit/pixel
Аудио 1: 48 kHz, AC3 Dolby Digital, 2/0 (L,R) ch, ~224 kbps kbps | Видео-Сервис Video CD
Аудио 2: 48 kHz, AC3 Dolby Digital, 2/0 (L,R) ch, ~192 kbps Неопознанный
Аудио 3: 48 kHz, AC3 Dolby Digital, 2/0 (L,R) ch, ~192 kbps Неопознанный 2
Размер: 1502.90 Mb (1/3 DVD-R)
Отдельно
Аудио 4: 48 kHz, AC3 Dolby Digital, 3/2 (L,C,R,l,r) + LFE ch, ~448 kbps | Видео-Сервис DVD9
Аудио 5: 48 kHz, AC3 Dolby Digital, 3/2 (L,C,R,l,r) + LFE ch, ~448 kbps | Видео-Сервис DVD5
Аудио 6: 48 kHz, AC3 Dolby Digital, 3/2 (L,C,R,l,r) + LFE ch, ~448 kbps | Original

MediaInfo

General
Format : AVI
Format/Info : Audio Video Interleave
File size : 1.47 GiB
Duration : 1h 29mn
Overall bit rate : 2 361 Kbps
Writing application : VirtualDubMod 1.5.10.3 | www.virtualdub-fr.org || (build 2550/release)
Writing library : VirtualDubMod build 2550/release
Video
ID : 0
Format : MPEG-4 Visual
Format profile : Advanced [email protected]
Format settings, BVOP : 1
Format settings, QPel : No
Format settings, GMC : No warppoints
Format settings, Matrix : Custom
Codec ID : XVID
Codec ID/Hint : XviD
Duration : 1h 29mn
Bit rate : 1 734 Kbps
Width : 720 pixels
Height : 384 pixels
Display aspect ratio : 1.85:1
Frame rate : 23.976 fps
Color space : YUV
Chroma subsampling : 4:2:0
Bit depth : 8 bits
Scan type : Progressive
Compression mode : Lossy
Bits/(Pixel*Frame) : 0.262
Stream size : 1.08 GiB (73%)
Writing library : XviD 73
Audio #1
ID : 1
Format : AC-3
Format/Info : Audio Coding 3
Mode extension : CM (complete main)
Format settings, Endianness : Big
Codec ID : 2000
Duration : 1h 29mn
Bit rate mode : Constant
Bit rate : 224 Kbps
Channel(s) : 2 channels
Channel positions : Front: L R
Sampling rate : 48.0 KHz
Bit depth : 16 bits
Compression mode : Lossy
Stream size : 143 MiB (9%)
Alignment : Split accross interleaves
Interleave, duration : 42 ms (1.00 video frame)
Interleave, preload duration : 500 ms
Audio #2
ID : 2
Format : AC-3
Format/Info : Audio Coding 3
Mode extension : CM (complete main)
Format settings, Endianness : Big
Codec ID : 2000
Duration : 1h 29mn
Bit rate mode : Constant
Bit rate : 192 Kbps
Channel(s) : 2 channels
Channel positions : Front: L R
Sampling rate : 48.0 KHz
Bit depth : 16 bits
Compression mode : Lossy
Stream size : 122 MiB (8%)
Alignment : Split accross interleaves
Interleave, duration : 42 ms (1.00 video frame)
Interleave, preload duration : 500 ms
Audio #3
ID : 3
Format : AC-3
Format/Info : Audio Coding 3
Mode extension : CM (complete main)
Format settings, Endianness : Big
Codec ID : 2000
Duration : 1h 29mn
Bit rate mode : Constant
Bit rate : 192 Kbps
Channel(s) : 2 channels
Channel positions : Front: L R
Sampling rate : 48.0 KHz
Bit depth : 16 bits
Compression mode : Lossy
Stream size : 122 MiB (8%)
Alignment : Split accross interleaves
Interleave, duration : 42 ms (1.00 video frame)
Interleave, preload duration : 500 ms

Скриншоты

Источник: Torrentc.org

[url=viewtopic.php?t=5222517]http://Torrentc.org/forum/viewtopic.php?t=5222517[/url]


[jinwg81.com]_torrent-5345416.torrent
Торрент: Зарегистрирован ·  [ 2017-02-14 19:18 ] ·  b155eaf43ce729a6c78f21ec88de1cac809a725e

13 KB

Статус: проверено
Скачан: 0 раз
Размер: 2.3 GB
Оценка: 
(Голосов: 0)
Сказали спасибо: 0  Спасибо
Похожие темы
[Профиль]    [ЛС]
Показать сообщения:    
Ответить на тему

Текущее время: Сегодня 22:20

Часовой пояс: GMT + 7



Вы не можете начинать темы
Вы не можете отвечать на сообщения
Вы не можете редактировать свои сообщения
Вы не можете удалять свои сообщения
Вы не можете голосовать в опросах
Вы не можете прикреплять файлы к сообщениям
Вы можете скачивать файлы