Richard Linklater
Guillermo Navarro

Ловец снов / Dreamcatcher (Лоуренс Кэздан / Lawrence Kasdan) [2003, США, Австралия, Ужасы, фантастика, триллер, драма, WEB-DLRip] [Open Matte] Dub + Sub Rus

Ответить на тему
Статистика раздачи [Обновить пиров]
Размер:  2.19 GB   |    Зарегистрирован:  1 год   |    Скачан:  0 раз

Полного источника не было: Никогда

 
   
 
 
 
Автор Сообщение

jinwg81.com

Создавать темы 14-Фев-2017 19:18

[Цитировать]

Ловец снов / Dreamcatcher / Open Matte
Страна: США, Австралия
Жанр: Ужасы, фантастика, триллер, драма
Год выхода: 2003
Продолжительность: 02:13:47
Перевод: Профессиональный (дублированный)
Cубтитры: русские
Режиссер: Лоуренс Кэздан / Lawrence Kasdan
В ролях: Морган Фриман, Томас Джейн, Джейсон Ли, Дэмиэн Льюис, Тимоти Олифант, Том Сайзмор, Донни Уолберг, Майки Хоулкамп, Рис Томпсон, Джакомо Бессато
Описание: Джонси, Генри, Пит и Бивер. Двадцать лет назад они были просто мальчишками, проживающими в одном небольшом городке штата Мэн, — детьми, нашедшими в себе достаточно мужества, чтобы героически ответить на детскую жестокость. Награда за спасение странноватого мальчика по имени Даддитс совершенно неожиданно пришла к ним в виде сверхъестественных сил, связавших всех пятерых крепчайшими узами братства.
Но когда на ежегодной охоте друзья собираются вместе в лесной хижине, то вместо ожидаемой теплой веселой атмосферы над ними начинает сгущаться абсолютное зло, приносящее гибель. Сначала к ним попадает незнакомец — затерявшийся в лесу охотник, которому и невдомек, что его организм поражен смертельной заразой. А вслед за ним возникает неистовствующий снежный буран, в эпицентре которого движется нечто еще более зловещее… Впереди — крупнейшее противостояние ужасу, не имеющему аналогов.
Доп. информация: Различия BD и WEB-DL - разное наполнение кадра - 16:9 (1.78:1) ->
[url=viewtopic.php?t=4471600]Фильмы в Fullscreen (4:3) и Open Matte (16:9) форматах[/url]
Сэмпл: http://m.sendspace.com/file/w9kii7
Качество видео: WEB-DLRip [url=viewtopic.php?t=5258007]Источник: Torrentc.org[/url]
Формат файла: AVI
Видео: XviD / 1943 kbps / 704x400 / 23.976 fps
Аудио: DUB (Rus) / AC3 / 6 ch / 384 kbps / 48 kHz
Формат файла субтитров: softsub (SRT)
Доп. информация о субтитрах: Русские (forced)

MediaInfo

General
Complete name : J:\Torrents\Готовые релизы\Ловец снов (2003) WEB-DLRip [Open Matte]\Ловец снов (2003) WEB-DLRip [Open Matte].avi
Format : AVI
Format/Info : Audio Video Interleave
Format profile : OpenDML
File size : 2.19 GiB
Duration : 2h 13mn
Overall bit rate : 2 340 Kbps
Video
ID : 0
Format : MPEG-4 Visual
Format profile : Advanced [email protected]
Format settings, BVOP : 1
Format settings, QPel : No
Format settings, GMC : No warppoints
Format settings, Matrix : Default (MPEG)
Codec ID : XVID
Codec ID/Hint : XviD
Duration : 2h 13mn
Bit rate : 1 943 Kbps
Width : 704 pixels
Height : 400 pixels
Display aspect ratio : 16:9
Frame rate : 23.976 (23976/1000) fps
Color space : YUV
Chroma subsampling : 4:2:0
Bit depth : 8 bits
Scan type : Progressive
Compression mode : Lossy
Bits/(Pixel*Frame) : 0.288
Stream size : 1.81 GiB (83%)
Writing library : XviD 64
Audio
ID : 1
Format : AC-3
Format/Info : Audio Coding 3
Mode extension : CM (complete main)
Format settings, Endianness : Big
Codec ID : 2000
Duration : 2h 13mn
Bit rate mode : Constant
Bit rate : 384 Kbps
Channel(s) : 6 channels
Channel positions : Front: L C R, Side: L R, LFE
Sampling rate : 48.0 KHz
Frame rate : 31.250 fps (1536 spf)
Compression mode : Lossy
Stream size : 367 MiB (16%)
Alignment : Aligned on interleaves
Interleave, duration : 32 ms (0.77 video frame)

Скриншот c названием фильма

Скриншоты



[jinwg81.com]_torrent-5344203.torrent
Торрент: Зарегистрирован ·  [ 2017-02-14 19:18 ] ·  4f547c82621bdf559d00cac1d2ee6874ae9e4642

12 KB

Статус: проверено
Скачан: 0 раз
Размер: 2.19 GB
Оценка: 
(Голосов: 0)
Сказали спасибо: 0  Спасибо
Похожие темы
[Профиль]    [ЛС]
Показать сообщения:    
Ответить на тему

Текущее время: Сегодня 22:12

Часовой пояс: GMT + 7



Вы не можете начинать темы
Вы не можете отвечать на сообщения
Вы не можете редактировать свои сообщения
Вы не можете удалять свои сообщения
Вы не можете голосовать в опросах
Вы не можете прикреплять файлы к сообщениям
Вы можете скачивать файлы