Репликант / Двойник / Replicant (Ринго Лэм / Ringo Lam) [2001, США, фантастика, боевик, триллер, BDRip-AVC] Dub + MVO + 2х AVO + Original Eng + Sub (Rus, Eng)

Ответить на тему
Статистика раздачи [Обновить пиров]
Размер:  2.95 GB   |    Зарегистрирован:  1 год   |    Скачан:  0 раз

Полного источника не было: Никогда

 
   
 
 
 
Автор Сообщение

jinwg81.com

Создавать темы 14-Фев-2017 19:18

[Цитировать]

Репликант / Двойник / Replicant- Страна: США
Жанр: фантастика, боевик, триллер
Год выхода: 2001
Продолжительность: 01:41:01
Перевод 1: Профессиональный (дублированный)
Перевод 2: Профессиональный (многоголосый закадровый) R5
Перевод 3: Авторский (одноголосый закадровый) Сергей Визгунов
Перевод 4: Авторский (одноголосый закадровый) Андрей Гаврилов
Cубтитры: русские, английские
Оригинальная аудиодорожка: английский
Режиссер: Ринго Лэм / Ringo Lam
В ролях: Жан-Клод Ван Дамм, Майкл Рукер, Катрин Дент, Брэндон Джеймс Олсон, Пэм Хайатт, Йен Робисан, Аллан Грэй, Джеймс Хатсон, Джейми Нокс, Пол МакДжиллион
Описание: Полиция сбилась с ног, разыскивая серийного убийцу, совершившего более десятка нападений на одиноких матерей с детьми. Безжалостныйманьяк оставляет на месте преступления всегда одно и то же – истерзанный и сожженный труп женщины и практически никаких улик, позволяющих выйти на его след. На помощь полиции приходит национальная служба безопасности, по заданию которой ученые, используяодин-единственный волос убийцы, найденный на месте преступления, создали его генетического двойника-репликанта. Специалисты полагают, что клон, благодаря генетической памяти, способен вывести их на след оригинала. Провести операцию поручают полицейскому Джейку, который до этого долго и безуспешно преследовал маньяка и даже стал его личным врагом. Сможет ли Джейк с помощью своего подопечного – репликанта – найти и обезвредить опасного преступника или же `голос крови` победит и в городе появится еще один близнец-убийца?..
Сэмпл: http://sendfile.su/1300468
[img]http://rating.kinopoisk.ru/1049.gif[/img]
Качество видео: BDRip-AVC (Replicant.2001.1080p.BD-Remux.)
Формат файла: MKV
Видео: x264, 1056x594 (16:9) 23,976 fps, ~2195 kbps, 0,146 bit/pixel
Аудио 1: 48 kHz, AC3 Dolby Digital, 3/2 (L,C,R,l,r) + LFE ch, ~448 kbps | Дубляж, R5
Аудио 2: 48 kHz, AC3 Dolby Digital, 3/2 (L,C,R,l,r) + LFE ch, ~448 kbps | Английский
---------------------------------------отдельно---------------------------------------------------
Аудио 3: 48 kHz, AC3 Dolby Digital, 3/2 (L,C,R,l,r) + LFE ch, ~448 kbps | MVO, R5
Аудио 4: 48 kHz, AC3 Dolby Digital, 3/2 (L,C,R,l,r) + LFE ch, ~448 kbps | Визгунов
Аудио 5: 48 kHz, AC3, 2/0 (L,R) ch, ~192 kbps avg | Гаврилов
Формат файла субтитров: softsub (SRT)

MediaInfo

General
Unique ID : 250316652096352050505140775342962127273 (0xBC513BCC3BE39BB2A67DFF9FC5E831A9)
Format : Matroska
Format version : Version 4 / Version 2
File size : 2.18 GiB
Duration : 1h 41mn
Overall bit rate : 3 092 Kbps
Encoded date : UTC 2017-01-18 08:13:36
Writing application : mkvmerge v9.7.1 ('Pandemonium') 64bit
Writing library : libebml v1.3.4 + libmatroska v1.4.5
Video #1
ID : 1
Format : AVC
Format/Info : Advanced Video Codec
Format profile : [email protected]
Format settings, CABAC : Yes
Format settings, ReFrames : 10 frames
Codec ID : V_MPEG4/ISO/AVC
Duration : 1h 41mn
Bit rate : 2 195 Kbps
Width : 1 056 pixels
Height : 594 pixels
Display aspect ratio : 16:9
Frame rate mode : Constant
Frame rate : 23.976 (24000/1001) fps
Color space : YUV
Chroma subsampling : 4:2:0
Bit depth : 8 bits
Scan type : Progressive
Bits/(Pixel*Frame) : 0.146
Stream size : 1.55 GiB (71%)
Writing library : x264 core 146 r2538 121396c
Encoding settings : cabac=1 / ref=10 / deblock=1:-3:-2 / analyse=0x3:0x113 / me=umh / subme=10 / psy=1 / psy_rd=1.00:0.00 / mixed_ref=1 / me_range=32 / chroma_me=1 / trellis=2 / 8x8dct=1 / cqm=0 / deadzone=21,11 / fast_pskip=1 / chroma_qp_offset=-2 / threads=6 / lookahead_threads=1 / sliced_threads=0 / nr=0 / decimate=1 / interlaced=0 / bluray_compat=0 / constrained_intra=0 / bframes=8 / b_pyramid=2 / b_adapt=2 / b_bias=0 / direct=1 / weightb=1 / open_gop=0 / weightp=2 / keyint=250 / keyint_min=23 / scenecut=40 / intra_refresh=0 / rc_lookahead=50 / rc=2pass / mbtree=1 / bitrate=2195 / ratetol=1.0 / qcomp=0.60 / qpmin=0 / qpmax=69 / qpstep=4 / cplxblur=20.0 / qblur=0.5 / ip_ratio=1.40 / aq=3:1.00
Language : English
Default : Yes
Forced : No
Audio #2
ID : 2
Format : AC-3
Format/Info : Audio Coding 3
Mode extension : CM (complete main)
Format settings, Endianness : Big
Codec ID : A_AC3
Duration : 1h 41mn
Bit rate mode : Constant
Bit rate : 448 Kbps
Channel(s) : 6 channels
Channel positions : Front: L C R, Side: L R, LFE
Sampling rate : 48.0 KHz
Frame rate : 31.250 fps (1536 spf)
Compression mode : Lossy
Stream size : 324 MiB (14%)
Language : Russian
Default : Yes
Forced : No
Audio #3
ID : 3
Format : AC-3
Format/Info : Audio Coding 3
Mode extension : CM (complete main)
Format settings, Endianness : Big
Codec ID : A_AC3
Duration : 1h 41mn
Bit rate mode : Constant
Bit rate : 448 Kbps
Channel(s) : 6 channels
Channel positions : Front: L C R, Side: L R, LFE
Sampling rate : 48.0 KHz
Frame rate : 31.250 fps (1536 spf)
Compression mode : Lossy
Stream size : 324 MiB (14%)
Language : English
Default : No
Forced : No
Text #4
ID : 4
Format : UTF-8
Codec ID : S_TEXT/UTF8
Codec ID/Info : UTF-8 Plain Text
Duration : 1h 35mn
Bit rate : 55 bps
Count of elements : 900
Stream size : 38.7 KiB (0%)
Title : R5
Language : Russian
Default : No
Forced : No
Text #5
ID : 5
Format : UTF-8
Codec ID : S_TEXT/UTF8
Codec ID/Info : UTF-8 Plain Text
Duration : 1h 34mn
Bit rate : 34 bps
Count of elements : 881
Stream size : 24.2 KiB (0%)
Language : English
Default : No
Forced : No
Text #6
ID : 6
Format : UTF-8
Codec ID : S_TEXT/UTF8
Codec ID/Info : UTF-8 Plain Text
Duration : 1h 35mn
Bit rate : 39 bps
Count of elements : 1002
Stream size : 27.5 KiB (0%)
Title : SDH
Language : English
Default : No
Forced : No

лог

raw [info]: 1056x594p 1:1 @ 24000/1001 fps (cfr)
x264 [info]: using SAR=1/1
x264 [info]: using cpu capabilities: MMX2 SSE2Fast SSSE3 SSE4.2 AVX XOP FMA4 FMA3 LZCNT BMI1
x264 [info]: profile High, level 4.1
x264 [info]: frame I:1242 Avg QP:15.68 size: 75676
x264 [info]: frame P:37702 Avg QP:19.04 size: 21467
x264 [info]: frame B:106385 Avg QP:21.52 size: 7132
x264 [info]: consecutive B-frames: 3.9% 6.7% 15.2% 20.9% 18.4% 29.0% 3.6% 1.1% 1.2%
x264 [info]: mb I I16..4: 5.8% 79.5% 14.7%
x264 [info]: mb P I16..4: 4.1% 16.9% 2.3% P16..4: 40.7% 18.6% 9.3% 0.0% 0.0% skip: 8.0%
x264 [info]: mb B I16..4: 0.3% 1.6% 0.2% B16..8: 40.7% 9.5% 1.9% direct: 5.1% skip:40.7% L0:42.7% L1:48.0% BI: 9.2%
x264 [info]: 8x8 transform intra:73.3% inter:74.5%
x264 [info]: coded y,uvDC,uvAC intra: 70.1% 67.3% 30.6% inter: 20.1% 18.5% 1.1%
x264 [info]: i16 v,h,dc,p: 35% 14% 9% 42%
x264 [info]: i8 v,h,dc,ddl,ddr,vr,hd,vl,hu: 16% 8% 8% 9% 13% 12% 12% 11% 11%
x264 [info]: i4 v,h,dc,ddl,ddr,vr,hd,vl,hu: 18% 7% 4% 9% 15% 13% 13% 10% 11%
x264 [info]: i8c dc,h,v,p: 35% 27% 24% 14%
x264 [info]: Weighted P-Frames: Y:3.5% UV:2.1%
x264 [info]: ref P L0: 48.6% 10.6% 17.5% 6.4% 5.0% 3.6% 3.0% 1.8% 1.6% 1.5% 0.4% 0.0%
x264 [info]: ref B L0: 76.6% 11.0% 4.8% 2.4% 1.8% 1.4% 1.1% 0.5% 0.3%
x264 [info]: ref B L1: 93.4% 6.6%
x264 [info]: kb/s:2193.71
x264 [total]: encoded 145329 frames, 7.97 fps, 2193.71 kb/s

Скриншоты




[jinwg81.com]_torrent-5343981.torrent
Торрент: Зарегистрирован ·  [ 2017-02-14 19:18 ] ·  9c10d0e4e23a2ae0cbe508777f15025ec19c096c

16 KB

Статус: проверено
Скачан: 0 раз
Размер: 2.95 GB
Оценка: 
(Голосов: 0)
Сказали спасибо: 0  Спасибо
Похожие темы
[Профиль]    [ЛС]
Показать сообщения:    
Ответить на тему

Текущее время: Сегодня 16:32

Часовой пояс: GMT + 7



Вы не можете начинать темы
Вы не можете отвечать на сообщения
Вы не можете редактировать свои сообщения
Вы не можете удалять свои сообщения
Вы не можете голосовать в опросах
Вы не можете прикреплять файлы к сообщениям
Вы можете скачивать файлы