Major Crimes HDTV
SEAL Team HDTV

Глубина / Below (Дэвид Туи / David Twohy) [2002, США, мистика, HDRip-AVC] DVO (НТВ+)

Ответить на тему
Статистика раздачи [Обновить пиров]
Размер:  1.44 GB   |    Зарегистрирован:  1 год   |    Скачан:  0 раз

Полного источника не было: Никогда

 
   
 
 
 
Автор Сообщение

jinwg81.com

Создавать темы 14-Фев-2017 19:18

[Цитировать]

Глубина
Below
Страна: США
Жанр: мистика
Год выхода: 2002
Продолжительность: 01:45:18-Перевод: Профессиональный (двухголосый закадровый) НТВ+
Текст читали: Людмила Шувалова и Михаил Тихонов
Cубтитры: нет
Оригинальная аудиодорожка: нет-Режиссер: Дэвид Туи / David Twohy
В ролях: Брюс Гринвуд, Оливия Уильямс, Холт МакКаллани, Джейсон Флеминг, Мэттью Дэвис, Скотт Фоули, Ник Чинланд, Декстер Флетчер, Кристофер Фэйрбэнк, Эндрю Ховард, Зак Галифианакис, Себастьян Кнапп, Алексис Конран, Мэттью Лейтч, Дэвид Туи-Описание: Атлантический океан, август 1943 года. Команда американской подводной лодки подбирает троих уцелевших с английского плавучего госпиталя, потопленного немецкой подлодкой. К удивлению экипажа, одной из них оказывается женщина. И плохая примета сбывается: череда мистических событий становится началом настоящего ужаса, родившегося на глубине-Доп. информация: Перевод на трекере появляется впервые
Сэмпл: 2минуты-Качество видео: HDRip-AVC (спасибо [url=viewtopic.php?t=4497587]Stalker oK[/url])
Формат файла: MKV
Видео: AVC, 1024х576, 16:9, 23,976 кадра/сек, 1766 Кбит/сек
Аудио: AC-3, 48,0 КГц, 192 Кбит/сек, 2 канала (двухголосый НТВ+)

MediaInfo

Общее
Уникальный идентификатор : 254181423644741257453457183069726669227 (0xBF398FBF25E9B4A48B7F102C7BF579AB)
Полное имя : Глубина.2002.HDRip.mkv
Формат файла : Matroska
Версия формата : Version 4 / Version 2
Размер файла : 1,44 Гбайт
Продолжительность : 1 ч. 45 м.
Общий поток : 1955 Кбит/сек
Название фильма : Глубина / Below / 2002
Дата кодирования : UTC 2017-01-17 07:57:41
Программа кодирования : mkvmerge v8.3.0 ('Over the Horizon') 32bit
Библиотека кодирования : libebml v1.3.1 + libmatroska v1.4.2
Видео
Идентификатор : 1
Формат файла : AVC
Формат файла/Информация : Advanced Video Codec
Профиль формата : [email protected]
Параметр CABAC формата : Да
Параметр ReFrames формата : 11 кадров
Идентификатор кодека : V_MPEG4/ISO/AVC
Продолжительность : 1 ч. 45 м.
Битрейт : 1766 Кбит/сек
Ширина : 1024 пикселя
Высота : 576 пикселей
Соотношение сторон : 16:9
Режим частоты кадров : Постоянный
Частота кадров : 23,976 (24000/1001) кадра/сек
Цветовое пространство : YUV
Субдискретизация насыщенности : 4:2:0
Битовая глубина : 8 бит
Тип развёртки : Прогрессивная
Бит/(Пиксели*Кадры) : 0.125
Размер потока : 1,30 Гбайт (90%)
Заголовок : Глубина / Below / 2002
Библиотека кодирования : x264 core 130 r2273 b3065e6
Настройки программы : cabac=1 / ref=11 / deblock=1:-2:-1 / analyse=0x3:0x133 / me=umh / subme=11 / psy=1 / psy_rd=1.20:0.08 / mixed_ref=1 / me_range=32 / chroma_me=1 / trellis=2 / 8x8dct=1 / cqm=0 / deadzone=21,11 / fast_pskip=0 / chroma_qp_offset=-3 / threads=6 / lookahead_threads=1 / sliced_threads=0 / nr=0 / decimate=0 / interlaced=0 / bluray_compat=0 / constrained_intra=0 / bframes=9 / b_pyramid=2 / b_adapt=2 / b_bias=0 / direct=3 / weightb=1 / open_gop=0 / weightp=2 / keyint=240 / keyint_min=23 / scenecut=40 / intra_refresh=0 / rc_lookahead=60 / rc=2pass / mbtree=1 / bitrate=1766 / ratetol=2.0 / qcomp=0.70 / qpmin=0 / qpmax=69 / qpstep=4 / cplxblur=20.0 / qblur=0.5 / vbv_maxrate=50000 / vbv_bufsize=62500 / nal_hrd=none / ip_ratio=1.40 / aq=1:1.00
Язык : English
Default : Да
Forced : Нет
Цветовой диапазон : Limited
Коэффициенты матрицы : BT.709
Аудио
Идентификатор : 2
Формат файла : AC-3
Формат файла/Информация : Audio Coding 3
Расширение режима : CM (complete main)
Параметр Endianness формата : Big
Идентификатор кодека : A_AC3
Продолжительность : 1 ч. 45 м.
Вид битрейта : Постоянный
Битрейт : 192 Кбит/сек
Каналы : 2 канала
Расположение каналов : Front: L R
Частота : 48,0 КГц
Частота кадров : 31,250 кадров/сек (1536 spf)
Битовая глубина : 16 бит
Метод сжатия : С потерями
Размер потока : 145 Мбайт (10%)
Заголовок : двухголосый НТВ+
Язык : Russian
Default : Да
Forced : Нет

Скриншот c названием фильма

Скриншоты



[jinwg81.com]_torrent-5342979.torrent
Торрент: Зарегистрирован ·  [ 2017-02-14 19:18 ] ·  dbace776ac19ac0a6395cdbb3873b28cc5a87239

15 KB

Статус: проверено
Скачан: 0 раз
Размер: 1.44 GB
Оценка: 
(Голосов: 0)
Сказали спасибо: 0  Спасибо
Похожие темы
[Профиль]    [ЛС]
Показать сообщения:    
Ответить на тему

Текущее время: Сегодня 15:00

Часовой пояс: GMT + 7



Вы не можете начинать темы
Вы не можете отвечать на сообщения
Вы не можете редактировать свои сообщения
Вы не можете удалять свои сообщения
Вы не можете голосовать в опросах
Вы не можете прикреплять файлы к сообщениям
Вы можете скачивать файлы