Shawn Ahmed
Janelle Hutchison

Что могло быть хуже? / What\'s the Worst That Could Happen? (Сэм Уайзман / Sam Weisman) [2001, США, комедия, криминал, BDRip-AVC] Dub + MVO + 2xDVO + AVO + Original Eng + Sub (Rus, Eng)

Ответить на тему
Статистика раздачи [Обновить пиров]
Размер:  2.76 GB   |    Зарегистрирован:  1 год   |    Скачан:  0 раз

Полного источника не было: Никогда

 
   
 
 
 
Автор Сообщение

jinwg81.com

Создавать темы 14-Фев-2017 19:18

[Цитировать]

Что могло быть хуже? / What's the Worst That Could Happen?- Страна: США
Жанр: комедия, криминал
Год выхода: 2001
Продолжительность: 01:38:28
Перевод 1: Профессиональный (дублированный) Гемини Фильм
Перевод 2: Профессиональный (многоголосый закадровый) R5
Перевод 3: Профессиональный (двухголосый закадровый) НТВ+
Перевод 4: Профессиональный (двухголосый закадровый) ТВ3
Перевод 5: Авторский (одноголосый закадровый) Карповский
Cубтитры: русские, английские
Оригинальная аудиодорожка: английский
Режиссер: Сэм Уайзман / Sam Weisman
В ролях: Мартин Лоуренс, Дэнни ДеВито, Джон Легуизамо, Гленн Хедли, Кармен Эджого, Берни Мак, Ларри Миллер, Нора Данн, Ричард Шифф, Уильям Фихтнер
Описание: И Кевина и Макса кормит воровство. Кевин - профессиональный вор, обожающий дорогие вещи, а миллиардер Макс Фербэнкс - беспринципный бизнесмен, не привыкший себе ни в чем отказывать. Кевин намеревается обчистить прибрежную виллу Макса, рассчитывая на отсутствие хозяина, но застает Макса в ванне с роскошной красоткой.
Подоспевшая полиция арестовывает незадачливого грабителя, но Максу этого мало. Он снимает с руки закованного в наручники Кевина кольцо, уверяя полицейских, что это его собственность. Вор обкрадывает вора.
На самом деле кольцо было подарено Кевину его подружкой, и он готов на все, чтобы его вернуть. Между двумя мошенниками развязывается настоящая война, в ходе которой возникают ситуации гораздо хуже и смешнее, чем они могли себе представить.
Сэмпл: http://sendfile.su/1299355
[img]http://rating.kinopoisk.ru/5242.gif[/img]
Качество видео: BDRip-AVC (What's_the_Worst_That_Could_Happen_2001_Remux_)
Формат файла: MKV
Видео: x264, 1008x546 (1.85:1) 23,976 fps, ~2086 kbps, 0,158 bit/pixel
Аудио 1: 48 kHz, AC3, 2/0 (L,R) ch, ~192 kbps avg | Гемини
Аудио 2: 48 kHz, AC3 Dolby Digital, 3/2 (L,C,R,l,r) + LFE ch, ~448 kbps | R5
Аудио 3: 48 kHz, AC3 Dolby Digital, 3/2 (L,C,R,l,r) + LFE ch, ~448 kbps | Английский
---------------------------------------отдельно---------------------------------------------------
Аудио 4: 48 kHz, AC3, 2/0 (L,R) ch, ~192 kbps avg | НТВ+
Аудио 5: 48 kHz, AC3, 2/0 (L,R) ch, ~192 kbps avg | ТВ3
Аудио 6: 48 kHz, AC3 Dolby Digital, 3/2 (L,C,R,l,r) + LFE ch, ~448 kbps | Карповский
Формат файла субтитров: softsub (SRT)

MediaInfo

General
Unique ID : 241444732733908234212006623350968189540 (0xB5A49066CE1843F691E8A1FD82BE8264)
Format : Matroska
Format version : Version 4 / Version 2
File size : 2.18 GiB
Duration : 1h 38mn
Overall bit rate : 3 176 Kbps
Encoded date : UTC 2017-01-15 11:32:35
Writing application : mkvmerge v9.7.1 ('Pandemonium') 64bit
Writing library : libebml v1.3.4 + libmatroska v1.4.5
Video #1
ID : 1
Format : AVC
Format/Info : Advanced Video Codec
Format profile : [email protected]
Format settings, CABAC : Yes
Format settings, ReFrames : 11 frames
Codec ID : V_MPEG4/ISO/AVC
Duration : 1h 38mn
Bit rate : 2 086 Kbps
Width : 1 008 pixels
Height : 546 pixels
Display aspect ratio : 1.85:1
Frame rate mode : Constant
Frame rate : 23.976 (24000/1001) fps
Color space : YUV
Chroma subsampling : 4:2:0
Bit depth : 8 bits
Scan type : Progressive
Bits/(Pixel*Frame) : 0.158
Stream size : 1.43 GiB (66%)
Writing library : x264 core 146 r2538 121396c
Encoding settings : cabac=1 / ref=11 / deblock=1:-3:-2 / analyse=0x3:0x113 / me=umh / subme=10 / psy=1 / psy_rd=1.00:0.00 / mixed_ref=1 / me_range=32 / chroma_me=1 / trellis=2 / 8x8dct=1 / cqm=0 / deadzone=21,11 / fast_pskip=1 / chroma_qp_offset=-2 / threads=6 / lookahead_threads=1 / sliced_threads=0 / nr=0 / decimate=1 / interlaced=0 / bluray_compat=0 / constrained_intra=0 / bframes=11 / b_pyramid=2 / b_adapt=2 / b_bias=0 / direct=1 / weightb=1 / open_gop=0 / weightp=2 / keyint=250 / keyint_min=23 / scenecut=40 / intra_refresh=0 / rc_lookahead=50 / rc=2pass / mbtree=1 / bitrate=2086 / ratetol=1.0 / qcomp=0.60 / qpmin=0 / qpmax=69 / qpstep=4 / cplxblur=20.0 / qblur=0.5 / ip_ratio=1.40 / aq=3:1.00
Language : English
Default : Yes
Forced : No
Audio #2
ID : 2
Format : AC-3
Format/Info : Audio Coding 3
Mode extension : CM (complete main)
Format settings, Endianness : Big
Codec ID : A_AC3
Duration : 1h 38mn
Bit rate mode : Constant
Bit rate : 192 Kbps
Channel(s) : 2 channels
Channel positions : Front: L R
Sampling rate : 48.0 KHz
Frame rate : 31.250 fps (1536 spf)
Compression mode : Lossy
Stream size : 135 MiB (6%)
Title : Гемини
Language : Russian
Default : Yes
Forced : No
Audio #3
ID : 3
Format : AC-3
Format/Info : Audio Coding 3
Mode extension : CM (complete main)
Format settings, Endianness : Big
Codec ID : A_AC3
Duration : 1h 38mn
Bit rate mode : Constant
Bit rate : 448 Kbps
Channel(s) : 6 channels
Channel positions : Front: L C R, Side: L R, LFE
Sampling rate : 48.0 KHz
Frame rate : 31.250 fps (1536 spf)
Compression mode : Lossy
Stream size : 316 MiB (14%)
Title : R5
Language : Russian
Default : No
Forced : No
Audio #4
ID : 4
Format : AC-3
Format/Info : Audio Coding 3
Mode extension : CM (complete main)
Format settings, Endianness : Big
Codec ID : A_AC3
Duration : 1h 38mn
Bit rate mode : Constant
Bit rate : 448 Kbps
Channel(s) : 6 channels
Channel positions : Front: L C R, Side: L R, LFE
Sampling rate : 48.0 KHz
Frame rate : 31.250 fps (1536 spf)
Compression mode : Lossy
Stream size : 316 MiB (14%)
Language : English
Default : No
Forced : No
Text #5
ID : 5
Format : UTF-8
Codec ID : S_TEXT/UTF8
Codec ID/Info : UTF-8 Plain Text
Duration : 1h 32mn
Bit rate : 161 bps
Count of elements : 1820
Stream size : 109 KiB (0%)
Language : Russian
Default : Yes
Forced : No
Text #6
ID : 6
Format : UTF-8
Codec ID : S_TEXT/UTF8
Codec ID/Info : UTF-8 Plain Text
Duration : 1h 38mn
Bit rate : 88 bps
Count of elements : 2120
Stream size : 63.4 KiB (0%)
Language : English
Default : No
Forced : No
Text #7
ID : 7
Format : UTF-8
Codec ID : S_TEXT/UTF8
Codec ID/Info : UTF-8 Plain Text
Duration : 1h 38mn
Bit rate : 92 bps
Count of elements : 2225
Stream size : 66.5 KiB (0%)
Title : SDH
Language : English
Default : No
Forced : No
Text #8
ID : 8
Format : UTF-8
Codec ID : S_TEXT/UTF8
Codec ID/Info : UTF-8 Plain Text
Duration : 1h 38mn
Bit rate : 101 bps
Count of elements : 2225
Stream size : 73.3 KiB (0%)
Title : SDH.COLORED
Language : English
Default : No
Forced : No

лог

raw [info]: 1008x546p 1:1 @ 24000/1001 fps (cfr)
x264 [info]: using SAR=1/1
x264 [info]: using cpu capabilities: MMX2 SSE2Fast SSSE3 SSE4.2 AVX XOP FMA4 FMA3 LZCNT BMI1
x264 [info]: profile High, level 4.1
x264 [info]: frame I:1633 Avg QP:16.74 size: 75491
x264 [info]: frame P:29913 Avg QP:19.96 size: 21683
x264 [info]: frame B:110104 Avg QP:22.30 size: 6971
x264 [info]: consecutive B-frames: 2.5% 2.5% 7.5% 15.6% 17.0% 43.4% 5.9% 2.3% 1.3% 0.8% 0.6% 0.5%
x264 [info]: mb I I16..4: 5.0% 79.4% 15.7%
x264 [info]: mb P I16..4: 1.2% 9.1% 1.6% P16..4: 41.8% 25.2% 13.1% 0.0% 0.0% skip: 8.0%
x264 [info]: mb B I16..4: 0.1% 0.8% 0.1% B16..8: 44.3% 10.4% 2.2% direct: 4.2% skip:38.0% L0:45.5% L1:46.3% BI: 8.2%
x264 [info]: 8x8 transform intra:77.6% inter:70.0%
x264 [info]: coded y,uvDC,uvAC intra: 84.7% 80.2% 47.2% inter: 23.0% 18.9% 1.7%
x264 [info]: i16 v,h,dc,p: 45% 12% 4% 39%
x264 [info]: i8 v,h,dc,ddl,ddr,vr,hd,vl,hu: 17% 8% 5% 9% 13% 13% 12% 11% 11%
x264 [info]: i4 v,h,dc,ddl,ddr,vr,hd,vl,hu: 24% 7% 3% 8% 13% 14% 12% 10% 10%
x264 [info]: i8c dc,h,v,p: 35% 25% 23% 18%
x264 [info]: Weighted P-Frames: Y:2.9% UV:1.1%
x264 [info]: ref P L0: 44.9% 12.0% 18.7% 6.2% 5.6% 3.4% 3.3% 1.6% 1.6% 1.2% 1.4% 0.2% 0.0%
x264 [info]: ref B L0: 68.9% 13.5% 6.8% 3.5% 2.4% 1.9% 1.4% 0.9% 0.5% 0.2%
x264 [info]: ref B L1: 91.1% 8.9%
x264 [info]: kb/s:2084.60
x264 [total]: encoded 141650 frames, 8.47 fps, 2084.60 kb/s

Скриншоты




[jinwg81.com]_torrent-5341990.torrent
Торрент: Зарегистрирован ·  [ 2017-02-14 19:18 ] ·  82e76e9bffd3bdd9b14145ebeaa27d96a37eed8c

15 KB

Статус: проверено
Скачан: 0 раз
Размер: 2.76 GB
Оценка: 
(Голосов: 0)
Сказали спасибо: 0  Спасибо
Похожие темы
[Профиль]    [ЛС]
Показать сообщения:    
Ответить на тему

Текущее время: Сегодня 15:21

Часовой пояс: GMT + 7



Вы не можете начинать темы
Вы не можете отвечать на сообщения
Вы не можете редактировать свои сообщения
Вы не можете удалять свои сообщения
Вы не можете голосовать в опросах
Вы не можете прикреплять файлы к сообщениям
Вы можете скачивать файлы