Любимцы Америки / America\'s Sweethearts (Джо Рот / Joe Roth) [2001, США, мелодрама, комедия, BDRip-AVC] Dub + MVO + DVO + Original Eng + Sub (Rus, Eng)

Ответить на тему
Статистика раздачи [Обновить пиров]
Размер:  2.32 GB   |    Зарегистрирован:  1 год   |    Скачан:  0 раз

Полного источника не было: Никогда

 
   
 
 
 
Автор Сообщение

jinwg81.com

Создавать темы 14-Фев-2017 19:18

[Цитировать]

Любимцы Америки / America's Sweethearts- Страна: США
Жанр: мелодрама, комедия
Год выхода: 2001
Продолжительность: 01:43:30
Перевод 1: Профессиональный (дублированный)
Перевод 2: Профессиональный (многоголосый закадровый) R5, Видео Сервис
Перевод 3: Профессиональный (двухголосый закадровый)
Cубтитры: русские, английские
Оригинальная аудиодорожка: английский
Режиссер: Джо Рот / Joe Roth
В ролях: Джулия Робертс, Кэтрин Зета-Джонс, Билли Кристал, Джон Кьюсак, Хэнк Азария, Стэнли Туччи, Кристофер Уокен, Алан Аркин, Сет Грин, Скот Зеллер, Ларри Кинг, Стив Пинк
Описание: Красавица Гвен и неотразимый Эдди - знаменитая голливудская пара не только на экране, но и в жизни. Страна с нетерпением ждет их новых фильмов и с умилением следит за бесконечным семейным счастьем. Однако любимцы Америки не оправдали надежд публики и неожиданно для всех поссорились. Для киноиндустрии это просто катастрофа, ведь пара должна рекламировать свой новый фильм.
Бывших супругов обязательно надо заставить снова полюбить друг друга, хотя бы на одну пресс-конференцию. Эта опасная миссия возлагается на хрупкие плечи Кики, сестры и по совместительству ассистентке Гвен. Однако вместо того, чтобы влюблять Эдди, девушка умудрилась влюбиться сама…
Сэмпл: http://sendfile.su/1297893
[img]http://rating.kinopoisk.ru/1592.gif[/img]
Качество видео: BDRip-AVC ([url=viewtopic.php?t=3356704]Любимцы Америки 2001 BDRemux 1080p[/url])
Формат файла: MKV
Видео: x264, 1032x430 (2.40:1) 23,976 fps, ~1931 kbps, 0,181 bit/pixel
Аудио 1: 48 kHz, AC3, 2/0 (L,R) ch, ~192 kbps avg | Dub
Аудио 2: 48 kHz, AC3 Dolby Digital, 3/2 (L,C,R,l,r) + LFE ch, ~448 kbps | MVO
Аудио 3: 48 kHz, AC3 Dolby Digital, 3/2 (L,C,R,l,r) + LFE ch, ~448 kbps | Английский
---------------------------------------отдельно---------------------------------------------------
Аудио 4: 48 kHz, AC3, 2/0 (L,R) ch, ~192 kbps avg | DVO
Формат файла субтитров: softsub (SRT)

MediaInfo

General
Unique ID : 251700356955494317943821513491363120032 (0xBD5BB9B6EAF5828593365B80625FC3A0)
Format : Matroska
Format version : Version 4 / Version 2
File size : 2.18 GiB
Duration : 1h 43mn
Overall bit rate : 3 020 Kbps
Encoded date : UTC 2017-01-10 09:32:24
Writing application : mkvmerge v9.7.1 ('Pandemonium') 64bit
Writing library : libebml v1.3.4 + libmatroska v1.4.5
Video #1
ID : 1
Format : AVC
Format/Info : Advanced Video Codec
Format profile : [email protected]
Format settings, CABAC : Yes
Format settings, ReFrames : 10 frames
Codec ID : V_MPEG4/ISO/AVC
Duration : 1h 43mn
Bit rate : 1 931 Kbps
Width : 1 032 pixels
Height : 430 pixels
Display aspect ratio : 2.40:1
Frame rate mode : Constant
Frame rate : 23.976 (24000/1001) fps
Color space : YUV
Chroma subsampling : 4:2:0
Bit depth : 8 bits
Scan type : Progressive
Bits/(Pixel*Frame) : 0.181
Stream size : 1.40 GiB (64%)
Writing library : x264 core 146 r2538 121396c
Encoding settings : cabac=1 / ref=10 / deblock=1:-3:-2 / analyse=0x3:0x113 / me=umh / subme=10 / psy=1 / psy_rd=1.00:0.00 / mixed_ref=1 / me_range=32 / chroma_me=1 / trellis=2 / 8x8dct=1 / cqm=0 / deadzone=21,11 / fast_pskip=1 / chroma_qp_offset=-2 / threads=6 / lookahead_threads=1 / sliced_threads=0 / nr=0 / decimate=1 / interlaced=0 / bluray_compat=0 / constrained_intra=0 / bframes=10 / b_pyramid=2 / b_adapt=2 / b_bias=0 / direct=1 / weightb=1 / open_gop=0 / weightp=2 / keyint=250 / keyint_min=23 / scenecut=40 / intra_refresh=0 / rc_lookahead=50 / rc=2pass / mbtree=1 / bitrate=1931 / ratetol=1.0 / qcomp=0.60 / qpmin=0 / qpmax=69 / qpstep=4 / cplxblur=20.0 / qblur=0.5 / ip_ratio=1.40 / aq=3:1.00
Language : English
Default : Yes
Forced : No
Audio #2
ID : 2
Format : AC-3
Format/Info : Audio Coding 3
Mode extension : CM (complete main)
Format settings, Endianness : Big
Codec ID : A_AC3
Duration : 1h 43mn
Bit rate mode : Constant
Bit rate : 192 Kbps
Channel(s) : 2 channels
Channel positions : Front: L R
Sampling rate : 48.0 KHz
Frame rate : 31.250 fps (1536 spf)
Compression mode : Lossy
Stream size : 142 MiB (6%)
Title : Дублированный
Language : Russian
Default : Yes
Forced : No
Audio #3
ID : 3
Format : AC-3
Format/Info : Audio Coding 3
Mode extension : CM (complete main)
Format settings, Endianness : Big
Codec ID : A_AC3
Duration : 1h 43mn
Bit rate mode : Constant
Bit rate : 448 Kbps
Channel(s) : 6 channels
Channel positions : Front: L C R, Side: L R, LFE
Sampling rate : 48.0 KHz
Frame rate : 31.250 fps (1536 spf)
Compression mode : Lossy
Stream size : 332 MiB (15%)
Title : R5
Language : Russian
Default : No
Forced : No
Audio #4
ID : 4
Format : AC-3
Format/Info : Audio Coding 3
Mode extension : CM (complete main)
Format settings, Endianness : Big
Codec ID : A_AC3
Duration : 1h 43mn
Bit rate mode : Constant
Bit rate : 448 Kbps
Channel(s) : 6 channels
Channel positions : Front: L C R, Side: L R, LFE
Sampling rate : 48.0 KHz
Frame rate : 31.250 fps (1536 spf)
Compression mode : Lossy
Stream size : 332 MiB (15%)
Language : English
Default : No
Forced : No
Text #5
ID : 5
Format : UTF-8
Codec ID : S_TEXT/UTF8
Codec ID/Info : UTF-8 Plain Text
Duration : 1h 36mn
Bit rate : 129 bps
Count of elements : 1600
Stream size : 92.1 KiB (0%)
Title : Русские
Language : Russian
Default : Yes
Forced : No
Text #6
ID : 6
Format : UTF-8
Codec ID : S_TEXT/UTF8
Codec ID/Info : UTF-8 Plain Text
Duration : 1h 36mn
Bit rate : 83 bps
Count of elements : 1588
Stream size : 59.2 KiB (0%)
Title : Английские
Language : English
Default : No
Forced : NoD:\Downloads\Фильмы\Любимцы Америки\America's.Sweethearts.2001.BDRip-AVC.OIV.mkv
General
Unique ID : 251700356955494317943821513491363120032 (0xBD5BB9B6EAF5828593365B80625FC3A0)
Complete name : D:\Downloads\Фильмы\Любимцы Америки\America's.Sweethearts.2001.BDRip-AVC.OIV.mkv
Format : Matroska
Format version : Version 4 / Version 2
File size : 2.18 GiB
Duration : 1h 43mn
Overall bit rate : 3 020 Kbps
Encoded date : UTC 2017-01-10 09:32:24
Writing application : mkvmerge v9.7.1 ('Pandemonium') 64bit
Writing library : libebml v1.3.4 + libmatroska v1.4.5
Video #1
ID : 1
Format : AVC
Format/Info : Advanced Video Codec
Format profile : [email protected]
Format settings, CABAC : Yes
Format settings, ReFrames : 10 frames
Codec ID : V_MPEG4/ISO/AVC
Duration : 1h 43mn
Bit rate : 1 931 Kbps
Width : 1 032 pixels
Height : 430 pixels
Display aspect ratio : 2.40:1
Frame rate mode : Constant
Frame rate : 23.976 (24000/1001) fps
Color space : YUV
Chroma subsampling : 4:2:0
Bit depth : 8 bits
Scan type : Progressive
Bits/(Pixel*Frame) : 0.181
Stream size : 1.40 GiB (64%)
Writing library : x264 core 146 r2538 121396c
Encoding settings : cabac=1 / ref=10 / deblock=1:-3:-2 / analyse=0x3:0x113 / me=umh / subme=10 / psy=1 / psy_rd=1.00:0.00 / mixed_ref=1 / me_range=32 / chroma_me=1 / trellis=2 / 8x8dct=1 / cqm=0 / deadzone=21,11 / fast_pskip=1 / chroma_qp_offset=-2 / threads=6 / lookahead_threads=1 / sliced_threads=0 / nr=0 / decimate=1 / interlaced=0 / bluray_compat=0 / constrained_intra=0 / bframes=10 / b_pyramid=2 / b_adapt=2 / b_bias=0 / direct=1 / weightb=1 / open_gop=0 / weightp=2 / keyint=250 / keyint_min=23 / scenecut=40 / intra_refresh=0 / rc_lookahead=50 / rc=2pass / mbtree=1 / bitrate=1931 / ratetol=1.0 / qcomp=0.60 / qpmin=0 / qpmax=69 / qpstep=4 / cplxblur=20.0 / qblur=0.5 / ip_ratio=1.40 / aq=3:1.00
Language : English
Default : Yes
Forced : No
Audio #2
ID : 2
Format : AC-3
Format/Info : Audio Coding 3
Mode extension : CM (complete main)
Format settings, Endianness : Big
Codec ID : A_AC3
Duration : 1h 43mn
Bit rate mode : Constant
Bit rate : 192 Kbps
Channel(s) : 2 channels
Channel positions : Front: L R
Sampling rate : 48.0 KHz
Frame rate : 31.250 fps (1536 spf)
Compression mode : Lossy
Stream size : 142 MiB (6%)
Title : Дублированный
Language : Russian
Default : Yes
Forced : No
Audio #3
ID : 3
Format : AC-3
Format/Info : Audio Coding 3
Mode extension : CM (complete main)
Format settings, Endianness : Big
Codec ID : A_AC3
Duration : 1h 43mn
Bit rate mode : Constant
Bit rate : 448 Kbps
Channel(s) : 6 channels
Channel positions : Front: L C R, Side: L R, LFE
Sampling rate : 48.0 KHz
Frame rate : 31.250 fps (1536 spf)
Compression mode : Lossy
Stream size : 332 MiB (15%)
Title : R5
Language : Russian
Default : No
Forced : No
Audio #4
ID : 4
Format : AC-3
Format/Info : Audio Coding 3
Mode extension : CM (complete main)
Format settings, Endianness : Big
Codec ID : A_AC3
Duration : 1h 43mn
Bit rate mode : Constant
Bit rate : 448 Kbps
Channel(s) : 6 channels
Channel positions : Front: L C R, Side: L R, LFE
Sampling rate : 48.0 KHz
Frame rate : 31.250 fps (1536 spf)
Compression mode : Lossy
Stream size : 332 MiB (15%)
Language : English
Default : No
Forced : No
Text #5
ID : 5
Format : UTF-8
Codec ID : S_TEXT/UTF8
Codec ID/Info : UTF-8 Plain Text
Duration : 1h 36mn
Bit rate : 129 bps
Count of elements : 1600
Stream size : 92.1 KiB (0%)
Title : Русские
Language : Russian
Default : Yes
Forced : No
Text #6
ID : 6
Format : UTF-8
Codec ID : S_TEXT/UTF8
Codec ID/Info : UTF-8 Plain Text
Duration : 1h 36mn
Bit rate : 83 bps
Count of elements : 1588
Stream size : 59.2 KiB (0%)
Title : Английские
Language : English
Default : No
Forced : No

лог

raw [info]: 1032x430p 1:1 @ 24000/1001 fps (cfr)
x264 [info]: using SAR=1/1
x264 [info]: using cpu capabilities: MMX2 SSE2Fast SSSE3 SSE4.2 AVX XOP FMA4 FMA3 LZCNT BMI1
x264 [info]: profile High, level 4.1
x264 [info]: frame I:1357 Avg QP:16.50 size: 79972
x264 [info]: frame P:31483 Avg QP:19.57 size: 21665
x264 [info]: frame B:116067 Avg QP:22.34 size: 6097
x264 [info]: consecutive B-frames: 2.2% 2.6% 7.4% 16.2% 18.0% 41.0% 6.5% 2.3% 1.5% 1.2% 1.0%
x264 [info]: mb I I16..4: 4.4% 78.1% 17.5%
x264 [info]: mb P I16..4: 0.7% 6.7% 1.1% P16..4: 37.6% 28.4% 16.3% 0.0% 0.0% skip: 9.3%
x264 [info]: mb B I16..4: 0.0% 0.6% 0.1% B16..8: 43.9% 10.6% 3.0% direct: 4.0% skip:37.9% L0:45.0% L1:45.7% BI: 9.3%
x264 [info]: 8x8 transform intra:79.4% inter:63.4%
x264 [info]: coded y,uvDC,uvAC intra: 89.8% 80.4% 52.6% inter: 24.9% 14.0% 1.6%
x264 [info]: i16 v,h,dc,p: 43% 17% 8% 32%
x264 [info]: i8 v,h,dc,ddl,ddr,vr,hd,vl,hu: 11% 9% 7% 9% 14% 15% 12% 12% 11%
x264 [info]: i4 v,h,dc,ddl,ddr,vr,hd,vl,hu: 11% 8% 4% 9% 15% 16% 13% 12% 11%
x264 [info]: i8c dc,h,v,p: 38% 23% 22% 18%
x264 [info]: Weighted P-Frames: Y:3.8% UV:0.9%
x264 [info]: ref P L0: 44.6% 13.4% 17.7% 6.2% 5.6% 3.6% 3.5% 1.8% 1.9% 1.6% 0.2% 0.0%
x264 [info]: ref B L0: 70.4% 12.7% 6.6% 3.4% 2.4% 2.0% 1.6% 0.7% 0.3%
x264 [info]: ref B L1: 91.2% 8.8%
x264 [info]: kb/s:1929.84
x264 [total]: encoded 148907 frames, 9.22 fps, 1929.84 kb/s

Скриншоты




[jinwg81.com]_torrent-5339395.torrent
Торрент: Зарегистрирован ·  [ 2017-02-14 19:18 ] ·  f0c373ba03eb990eff4649e2513a8b2d05f43665

12 KB

Статус: проверено
Скачан: 0 раз
Размер: 2.32 GB
Оценка: 
(Голосов: 0)
Сказали спасибо: 0  Спасибо
Похожие темы
[Профиль]    [ЛС]
Показать сообщения:    
Ответить на тему

Текущее время: Сегодня 16:39

Часовой пояс: GMT + 7



Вы не можете начинать темы
Вы не можете отвечать на сообщения
Вы не можете редактировать свои сообщения
Вы не можете удалять свои сообщения
Вы не можете голосовать в опросах
Вы не можете прикреплять файлы к сообщениям
Вы можете скачивать файлы