Шоу 30 лет балету Тодес 2017.04.23 (Алла Духова) [2017, Show, HDTV 1080i]

Ответить на тему
Статистика раздачи [Обновить пиров]
Размер:  9.5 GB   |    Зарегистрирован:  8 месяцев 21 день   |    Скачан:  0 раз

Полного источника не было: Никогда

 
   
 
 
 
Автор Сообщение

jinwg81.com

Создавать темы 02-Май-2017 10:57

[Цитировать]

Шоу 30 лет балету Тодес 2017.04.23
Дата/Год выхода: 2017
Страна: Россия
Жанр: Show
Продолжительность: 01:50:00
Перевод: Не требуется
Режиссер: Алла Духова
Телеканал: Первый HD
Описание: Вот уже три десятилетия TODES дарит миллионам своих учеников, зрителей и поклонников удивительную радость танца. История развития балета по-настоящему яркая и стремительная. В 1987 году Алла Духова собрала брейк-данс коллектив, который быстро завоевал популярность. В течение десяти лет TODES работал с ведущими звездами отечественного шоу-бизнеса, а в 1997-м стал абсолютно самостоятельным коллективом. Спустя год открылась первая школа танца Аллы Духовой, сегодня насчитывающая более ста филиалов в России и за рубежом.
В юбилейном концерте к 30-летию балета TODES приняли участие популярные отечественные исполнители, с которыми работали танцоры. На сцену вышли Филипп Киркоров, Кристина Орбакайте, Валерия, группа «А-Студио», Олег Газманов, Валерий Сюткин и многие другие.
Качество: HDTV 1080i
Формат файла: TS
Видео кодек: H.264
Аудио кодек: AC3
Видео: H264; 1920x1080 (16:9); 25.000 fps; ~ 11.2 Mb/s
Аудио 1: AC3, 6 channels, 48000Hz, 384 Кбит/сек
Аудио 2: MPEG Audio 48000Hz stereo 192 Кбит/сек

MediaInfo

GeneralID : 1 (0x1)Complete name : E:\Шоу 30 лет балету Тодес 2017.04.23.tsFormat : MPEG-TSFile size : 9.50 GiBDuration : 1 h 50 minOverall bit rate mode : VariableOverall bit rate : 12.4 Mb/s
VideoID : 205 (0xCD)Menu ID : 20105 (0x4E89)Format : AVCFormat/Info : Advanced Video CodecFormat profile : [email protected] settings, CABAC : YesFormat settings, ReFrames : 4 framesCodec ID : 27Duration : 1 h 50 minBit rate : 11.2 Mb/sWidth : 1 920 pixelsHeight : 1 080 pixelsDisplay aspect ratio : 16:9Frame rate : 25.000 FPSStandard : ComponentColor space : YUVChroma subsampling : 4:2:0Bit depth : 8 bitsScan type : InterlacedScan type, store method : Separated fieldsScan order : Top Field FirstBits/(Pixel*Frame) : 0.215Stream size : 8.58 GiB (90%)Color range : LimitedColor primaries : BT.709Transfer characteristics : BT.709Matrix coefficients : BT.709
Audio #1ID : 305 (0x131)Menu ID : 20105 (0x4E89)Format : AC-3Format/Info : Audio Coding 3Mode extension : CM (complete main)Format settings, Endianness : BigCodec ID : 6Duration : 1 h 50 minBit rate mode : ConstantBit rate : 384 kb/sChannel(s) : 6 channelsChannel positions : Front: L C R, Side: L R, LFESampling rate : 48.0 kHzFrame rate : 31.250 FPS (1536 spf)Bit depth : 16 bitsCompression mode : LossyStream size : 302 MiB (3%)Language : Russian
Audio #2ID : 306 (0x132)Menu ID : 20105 (0x4E89)Format : MPEG AudioFormat version : Version 1Format profile : Layer 2Codec ID : 3Duration : 1 h 50 minBit rate mode : ConstantBit rate : 192 kb/sChannel(s) : 2 channelsSampling rate : 48.0 kHzCompression mode : LossyStream size : 151 MiB (2%)Language : Russian

Скриншоты




[jinwg81.com]_t_5393203.torrent
Торрент: Зарегистрирован ·  [ 2017-05-02 10:54 ] ·  21063b26fcd2e24e18f8ea2ab9d75de496fecc85

48 KB

Статус: проверено
Скачан: 0 раз
Размер: 9.5 GB
Оценка: 
(Голосов: 0)
Сказали спасибо: 1  Спасибо   (список)
Похожие темы
[Профиль]    [ЛС]
Показать сообщения:    
Ответить на тему

Текущее время: Сегодня 17:17

Часовой пояс: GMT + 7



Вы не можете начинать темы
Вы не можете отвечать на сообщения
Вы не можете редактировать свои сообщения
Вы не можете удалять свои сообщения
Вы не можете голосовать в опросах
Вы не можете прикреплять файлы к сообщениям
Вы можете скачивать файлы