Танцуют все 06 выпуск 2017.04.23 [2017, Танцевальное шоу, HDTV 1080i]

Ответить на тему
Статистика раздачи [Обновить пиров]
Размер:  7.16 GB   |    Зарегистрирован:  8 месяцев 21 день   |    Скачан:  0 раз

Полного источника не было: Никогда

 
   
 
 
 
Автор Сообщение

jinwg81.com

Создавать темы 02-Май-2017 10:57

[Цитировать]

Танцуют все 06 выпуск 2017.04.23
Дата/Год выхода: 2017
Страна: Россия
Жанр: Танцевальное шоу
Продолжительность: 01:27:00
Перевод: Не требуется
Телеканал: Россия 1 HD
Описание: Лучшие танцевальные коллективы со всей страны начинают танцевальный марафон. Они выйдут на сцену, чтобы удивить и поразить зрителей и доказать всей стране, что они настоящие профессионалы! Мы увидим танцы, которые волнуют весь мир, танцы, которые хотят танцевать все!
Каждую неделю суперкоманды профессиональных танцоров будут соревноваться за главный приз проекта и звание лучшего танцевального коллектива России.
На главном танцполе России будет бушевать настоящая стихия - танца, движения, ритма, музыки и красоты. Здесь нет границ во времени и пространстве - участники танцуют всё! Разнообразие стилей удивляет, а количество участников потрясает! Их задача не только достойно представить свой собственный стиль, будь то народные или бальные танцы, хип-хоп, брейк-данс или контемпорари, балет или фламенко, но и стать лучшими на чужом поле. Участникам предстоит постоянно перевоплощаться, разрушать стереотипы, преодолевать себя и выступать в новой роли. Они докажут - жанровые границы в танцевальном искусстве достаточно условны и настоящим профессионалам
качество: HDTV 1080i
формат: TS
Видео: H264; 1920x1080 (16:9); 25.000 fps; ~10.9 Mb/s
Аудио: MPEG Audio Version 1 Layer 2, 48000Hz, 2 channels stereo 192 Кбит/сек

MediaInfo

GeneralID : 1 (0x1)Complete name : E:\Танцуют все 06 выпуск 2017.04.23.tsFormat : MPEG-TSFile size : 7.16 GiBDuration : 1 h 27 minOverall bit rate mode : VariableOverall bit rate : 11.7 Mb/s
VideoID : 2292 (0x8F4)Menu ID : 2291 (0x8F3)Format : AVCFormat/Info : Advanced Video CodecFormat profile : [email protected] settings, CABAC : YesFormat settings, ReFrames : 4 framesCodec ID : 27Duration : 1 h 27 minBit rate : 10.9 Mb/sWidth : 1 920 pixelsHeight : 1 080 pixelsDisplay aspect ratio : 16:9Frame rate : 25.000 FPSStandard : ComponentColor space : YUVChroma subsampling : 4:2:0Bit depth : 8 bitsScan type : InterlacedScan type, store method : Separated fieldsScan order : Top Field FirstBits/(Pixel*Frame) : 0.211Stream size : 6.69 GiB (93%)Color range : LimitedColor primaries : BT.709Transfer characteristics : BT.709Matrix coefficients : BT.709
AudioID : 2295 (0x8F7)Menu ID : 2291 (0x8F3)Format : MPEG AudioFormat version : Version 1Format profile : Layer 2Codec ID : 3Duration : 1 h 27 minBit rate mode : ConstantBit rate : 192 kb/sChannel(s) : 2 channelsSampling rate : 48.0 kHzCompression mode : LossyStream size : 120 MiB (2%)Language : Russian

Скриншоты




[jinwg81.com]_t_5393153.torrent
Торрент: Зарегистрирован ·  [ 2017-05-02 10:54 ] ·  f74e4b05a4df681d97c86aba715c6f09fa374891

36 KB

Статус: проверено
Скачан: 0 раз
Размер: 7.16 GB
Оценка: 
(Голосов: 0)
Сказали спасибо: 0  Спасибо
Похожие темы
[Профиль]    [ЛС]
Показать сообщения:    
Ответить на тему

Текущее время: Сегодня 17:18

Часовой пояс: GMT + 7



Вы не можете начинать темы
Вы не можете отвечать на сообщения
Вы не можете редактировать свои сообщения
Вы не можете удалять свои сообщения
Вы не можете голосовать в опросах
Вы не можете прикреплять файлы к сообщениям
Вы можете скачивать файлы