Кавказский пленник (Георгий Калатозишвили) [1975, военный, драма, SATRip]

Ответить на тему
Статистика раздачи [Обновить пиров]
Размер:  745 MB   |    Зарегистрирован:  1 год   |    Скачан:  0 раз

Полного источника не было: Никогда

 
   
 
 
 
Автор Сообщение

jinwg81.com

Создавать темы 14-Фев-2017 20:24

[Цитировать]

Кавказский пленник
Жанр: Военный, драма
Год выхода: 1975
Продолжительность: 01:12:07
Режиссёр: Георгий Калатозишвили
В ролях: Юрий Назаров, Владимир Солодовников, Лидия Ошеверова, Гиви Чугуашвили, Амиран Кадеишвили, Владимир Цуладзе, Навруз Абдул-оглы, Важа Кобулашвили, Али Исаев-Аварский
Описание: Служил на Кавказе офицер Жилин. Пришло ему письмо от матери и он решил съездить в отпуск домой. Но по дороге его и ещё одного русского офицера Костылина схватили горцы-мусульмане...
Семпл: http://multi-up.com/1066156
Источник: Torrentc.org: [url=viewtopic.php?t=4254654]http://Torrentc.org/forum/viewtopic.php?t=4254654[/url]
Формат файла: AVI
Качество видео: SATRip (DVB)
Видео: XviD, 640х480, 25fps, 1306kbps
Аудио: MPEG Layer 3, 2ch, 48000Hz, 128kbps

MediaInfo

Общее
Полное имя : Kavkazskii.Plennik.1975.O.SATRip.700.CurHaJI.avi
Формат файла : AVI
Формат файла/Информация : Audio Video Interleave
Размер файла : 745 Мбайт
Продолжительность : 1 ч. 12 м.
Общий поток : 1444 Кбит/сек
Название фильма : Kavkazskii.Plennik.1975.O.SATRip.700.CurHaJI
Программа кодирования : VirtualDubMod 1.5.10.3 | www.virtualdub-fr.org || (build 2550/release)
Библиотека кодирования : VirtualDub build 35491/release
Видео
Идентификатор : 0
Формат файла : MPEG-4 Visual
Профиль формата : Advanced [email protected]
Параметр BVOP формата : 1
Параметр QPel формата : Нет
Параметр GMC формата : Без точки перехода
Параметр матрицы формата : Выборочная
Идентификатор кодека : XVID
Идентификатор кодека/Подсказка : XviD
Продолжительность : 1 ч. 12 м.
Битрейт : 1306 Кбит/сек
Ширина : 640 пикселей
Высота : 480 пикселей
Соотношение сторон : 4:3
Частота кадров : 25,000 кадров/сек
Цветовое пространство : YUV
Субдискретизация насыщенности : 4:2:0
Битовая глубина : 8 бит
Тип развёртки : Прогрессивная
Метод сжатия : С потерями
Бит/(Пиксели*Кадры) : 0.170
Размер потока : 674 Мбайт (90%)
Библиотека кодирования : XviD 73
Аудио
Идентификатор : 1
Формат файла : MPEG Audio
Версия формата : Version 1
Профиль формата : Layer 3
Режим : Joint stereo
Расширение режима : MS Stereo
Идентификатор кодека : 55
Идентификатор кодека/Подсказка : MP3
Продолжительность : 1 ч. 12 м.
Вид битрейта : Постоянный
Битрейт : 128 Кбит/сек
Каналы : 2 канала
Частота : 48,0 КГц
Метод сжатия : С потерями
Размер потока : 66,0 Мбайт (9%)
Выравнивание : Соединение по промежуткам
Продолжительность промежутка : 40 мс. (1,00 видеокадр)
Время предзагрузки промежутка : 504 мс.
Библиотека кодирования : LAME3.99r
Настройки программы : -m j -V 4 -q 2 -lowpass 17 -b 128

Скриншоты



[jinwg81.com]_torrent-5353443.torrent
Торрент: Зарегистрирован ·  [ 2017-02-14 20:24 ] ·  d0c483a3119838a32c36c3114e0f10eef5f096cd

15 KB

Статус: проверено
Скачан: 0 раз
Размер: 745 MB
Оценка: 
(Голосов: 0)
Сказали спасибо: 0  Спасибо
Похожие темы
[Профиль]    [ЛС]
Показать сообщения:    
Ответить на тему

Текущее время: Сегодня 16:29

Часовой пояс: GMT + 7



Вы не можете начинать темы
Вы не можете отвечать на сообщения
Вы не можете редактировать свои сообщения
Вы не можете удалять свои сообщения
Вы не можете голосовать в опросах
Вы не можете прикреплять файлы к сообщениям
Вы можете скачивать файлы