Будьте моим мужем (Алла Сурикова) [1981, комедия, WEB-DLRip-AVC]

Ответить на тему
Статистика раздачи [Обновить пиров]
Размер:  2.36 GB   |    Зарегистрирован:  1 год   |    Скачан:  0 раз

Полного источника не было: Никогда

 
   
 
 
 
Автор Сообщение

jinwg81.com

Создавать темы 14-Фев-2017 20:25

[Цитировать]

Будьте моим мужем- Жанр: комедия
Год выхода: 1981
Продолжительность: 01:22:09
Cубтитры: русские-Режиссёр: Алла Сурикова-В ролях:
Елена Проклова, Андрей Миронов, Филипп Адамович, Нина Русланова, Наталья Крачковская, Владимир Басов, Антон Табаков, Баадур Цуладзе, Олег Анофриев, Николай Гринько, Георгий Штиль, Валентина Воилкова, Леонард Саркисов, Михаил Светин, Анна Варпаховская, Т. Фазылова
Описание:
В разгар курортного сезона свободных мест в гостиницах черноморского побережья не бывает. Наташе, приехавшей отдыхать с сыном, приходится попросить первого встречного мужчину представиться её мужем. Иначе квартирная хозяйка не сдаст ей комнату.-Сэмпл | Кинопоиск-Качество видео: WEB-DLRip-AVC
Формат файла: MKV
Видео: x264: ([email protected]); 896x648 25.000 fps; Display aspect ratio: 1.383:1; 3447 Kbps
Аудио 1: AC-3; 16 bits 48 Khz; 5.1ch 448 Kbps; CBR | [url=viewtopic.php?t=180632]DVD5[/url], спасибо serkaz
Аудио 2: AC-3; 16 bits 48 Khz; Mono 224 Kbps; CBR | -"-
Формат файла субтитров: softsub (SRT)

Источник: Torrentc.org

WEB-DL 1080р

MediaInfo

avs [info]: 896x648p 1:1 @ 25/1 fps (cfr)
x264 [info]: using SAR=1/1
x264 [info]: profile High, level 4.1
x264 [info]: frame I:637 Avg QP:16.82 size: 83893
x264 [info]: frame P:29066 Avg QP:18.70 size: 34173
x264 [info]: frame B:93529 Avg QP:21.11 size: 11515
x264 [info]: consecutive B-frames: 0.9% 1.8% 2.8% 64.0% 10.1% 18.0% 1.6% 0.7% 0.1%
x264 [info]: ref P L0: 48.1% 13.3% 17.6% 5.0% 4.3% 2.5% 2.5% 1.2% 1.3% 0.9% 1.0% 0.8% 0.8% 0.7% 0.1% 0.0%
x264 [info]: ref B L0: 81.3% 9.0% 3.4% 1.7% 1.1% 0.9% 0.7% 0.5% 0.4% 0.4% 0.3% 0.2% 0.1%
x264 [info]: ref B L1: 96.8% 3.2%
x264 [info]: kb/s:3446.72--General
Unique ID : 251978064491104413330364646257063119256 (0xBD9135C0CDFE0F6FBB0FC8730BF44998)
Complete name : Будьте моим мужем.1981.WEB-DLRip.mkv
Format : Matroska
Format version : Version 2
File size : 2.36 GiB
Duration : 1h 22mn
Overall bit rate : 4 121 Kbps
Movie name : «Будьте моим мужем»
Encoded date : UTC 2017-01-17 08:43:51
Writing application : mkvmerge v7.8.0 ('River Man') 32bit built on Mar 27 2015 16:18:02
Writing library : libebml v1.3.1 + libmatroska v1.4.2
Comment : WEB-DLRip-AVC
Originally released : January 16th 2017
Encoded by : george$t®
Video
ID : 1
Format : AVC
Format/Info : Advanced Video Codec
Format profile : [email protected]
Format settings, CABAC : Yes
Format settings, ReFrames : 14 frames
Codec ID : V_MPEG4/ISO/AVC
Duration : 1h 22mn
Bit rate : 3 367 Kbps
Width : 896 pixels
Height : 648 pixels
Display aspect ratio : 1.383
Frame rate mode : Constant
Frame rate : 25.000 fps
Color space : YUV
Chroma subsampling : 4:2:0
Bit depth : 8 bits
Scan type : Progressive
Bits/(Pixel*Frame) : 0.232
Stream size : 1.93 GiB (82%)
Title : Будьте моим мужем.1981
Writing library : x264 core 148 r2721kMod 72d53ab
Encoding settings : cabac=1 / ref=14 / deblock=1:-2:-1 / analyse=0x3:0x113 / me=umh / subme=10 / psy=1 / fade_compensate=0.00 / psy_rd=1.05:0.10 / mixed_ref=1 / me_range=32 / chroma_me=1 / trellis=2 / 8x8dct=1 / cqm=0 / deadzone=21,11 / fast_pskip=1 / chroma_qp_offset=-3 / threads=12 / lookahead_threads=2 / sliced_threads=0 / nr=0 / decimate=1 / interlaced=0 / bluray_compat=0 / constrained_intra=0 / fgo=0 / bframes=8 / b_pyramid=2 / b_adapt=2 / b_bias=0 / direct=3 / weightb=1 / open_gop=0 / weightp=2 / keyint=250 / keyint_min=25 / scenecut=40 / intra_refresh=0 / rc_lookahead=60 / rc=crf / mbtree=0 / crf=17.8000 / qcomp=0.65 / qpmin=0 / qpmax=69 / qpstep=4 / vbv_maxrate=62500 / vbv_bufsize=78125 / crf_max=0.0 / nal_hrd=none / filler=0 / ip_ratio=1.45 / pb_ratio=1.30 / aq=2:0.70
Language : Russian
Default : Yes
Forced : No
Color primaries : BT.709
Transfer characteristics : BT.709
Matrix coefficients : BT.709
Color range : Limited
Audio #1
ID : 2
Format : AC-3
Format/Info : Audio Coding 3
Mode extension : CM (complete main)
Format settings, Endianness : Big
Codec ID : A_AC3
Duration : 1h 22mn
Bit rate mode : Constant
Bit rate : 448 Kbps
Channel(s) : 6 channels
Channel positions : Front: L C R, Side: L R, LFE
Sampling rate : 48.0 KHz
Bit depth : 16 bits
Compression mode : Lossy
Stream size : 263 MiB (11%)
Title : AC-3; 16 bits 48 Khz; 5.1ch 448 Kbps; CBR
Language : Russian
Default : Yes
Forced : No
Audio #2
ID : 3
Format : AC-3
Format/Info : Audio Coding 3
Mode extension : CM (complete main)
Format settings, Endianness : Big
Codec ID : A_AC3
Duration : 1h 22mn
Bit rate mode : Constant
Bit rate : 224 Kbps
Channel(s) : 1 channel
Channel positions : Front: C
Sampling rate : 48.0 KHz
Bit depth : 16 bits
Compression mode : Lossy
Stream size : 132 MiB (5%)
Title : AC-3; 16 bits 48 Khz; Mono 224 Kbps; CBR
Language : Russian
Default : No
Forced : No
Text
ID : 4
Format : UTF-8
Codec ID : S_TEXT/UTF8
Codec ID/Info : UTF-8 Plain Text
Title : Субтитры русские
Language : Russian
Default : No
Forced : No
Menu
00:00:00.000 : ru:Пролог. Титры
00:03:59.880 : ru:Странная просьба
00:14:25.760 : ru:Появление "мужа"
00:23:15.400 : ru:"Дикари"
00:33:51.840 : ru:Затруднительное положение
00:41:00.000 : ru:Культурное мероприятие
00:45:16.240 : ru:Танго
00:46:29.200 : ru:Замечательная мама
00:51:25.240 : ru:В поисках жилья
00:54:55.600 : ru:Ревность
00:58:21.440 : ru:"Где ты была?.."
01:05:45.560 : ru:Красный... Зеленый...
01:13:09.240 : ru:Чашечка кофе
01:15:08.840 : ru:Изгнанники
01:20:07.400 : ru:Финал

Скриншоты

vs. DVDRip-avc
[url=viewtopic.php?t=4754952]http://Torrentc.org/forum/viewtopic.php?t=4754952[/url]


[jinwg81.com]_torrent-5342957.torrent
Торрент: Зарегистрирован ·  [ 2017-02-14 20:24 ] ·  3ee85bfefaf6812b27aacd4ee32e007794941d47

12 KB

Статус: проверено
Скачан: 0 раз
Размер: 2.36 GB
Оценка: 
(Голосов: 0)
Сказали спасибо: 0  Спасибо
Похожие темы
[Профиль]    [ЛС]
Показать сообщения:    
Ответить на тему

Текущее время: Сегодня 16:40

Часовой пояс: GMT + 7



Вы не можете начинать темы
Вы не можете отвечать на сообщения
Вы не можете редактировать свои сообщения
Вы не можете удалять свои сообщения
Вы не можете голосовать в опросах
Вы не можете прикреплять файлы к сообщениям
Вы можете скачивать файлы