Legends of Tomorrow
Les Revenants

Вий (Константин Ершов, Георгий Кропачев) [1967, страшная сказка, экранизация, BDRip]

Ответить на тему
Статистика раздачи [Обновить пиров]
Размер:  1.37 GB   |    Зарегистрирован:  1 год   |    Скачан:  0 раз

Полного источника не было: Никогда

 
   
 
 
 
Автор Сообщение

jinwg81.com

Создавать темы 14-Фев-2017 20:25

[Цитировать]

Вий
Жанр: страшная сказка, экранизация
Год выхода: 1967
Продолжительность: 01:16:24
Режиссёр: Константин Ершов, Георгий Кропачев
В ролях: Леонид Куравлев, Наталья Варлей, Алексей Глазырин, Вадим Захарченко, Николай Кутузов, Пётр Вескляров, Дмитрий Капка, Степан Шкурат, Николай Яковченко, Николай Панасьев, Владимир Сальников, Борислав Брондуков
Описание: По мотивам одноименной повести Н.В.Гоголя. Каникулы в Киевской семинарии оказались роковыми для философа Хомы Брута. Попросившись на ночлег в заброшенный хутор, он лицом к лицу столкнулся с дряхлой ведьмой, наложившей на Хому злые чары. Кое-как вырвавшись от карги, избив ее до полусмерти, он с ужасом узнает, что умирающая панночка, в которую обратилась ведьма на заре, просит именно его читать по ней заупокойную службу. Три ночи сражается Хома за душу усопшей...

Качество видео: BDRip [url=viewtopic.php?t=5277977]Источник: Torrentc.org[/url]
Формат файла: AVI //СОВМЕСТИМО С БЫТОВЫМИ ПЛЕЕРАМИ//
Видео: XviD 73, 704x528 (4:3), 23.976 fps, 2370 kbps avg
Аудио: AC3, 48 kHz, 2 ch, 192.00 kbps avg

MediaInfo

General
Complete name : G:\Вий (1967).avi
Format : AVI
Format/Info : Audio Video Interleave
File size : 1.37 GiB
Duration : 1 h 16 min
Overall bit rate : 2 571 kb/s
Writing application : VirtualDubMod 1.5.10.3 | www.virtualdub-fr.org || (build 2550/release)
Writing library : VirtualDubMod build 2550/release
Video
ID : 0
Format : MPEG-4 Visual
Format profile : Advanced [email protected]
Format settings, BVOP : 1
Format settings, QPel : No
Format settings, GMC : No warppoints
Format settings, Matrix : Default (MPEG)
Codec ID : XVID
Codec ID/Hint : XviD
Duration : 1 h 16 min
Bit rate : 2 370 kb/s
Width : 704 pixels
Height : 528 pixels
Display aspect ratio : 4:3
Frame rate : 23.976 (24000/1001) FPS
Color space : YUV
Chroma subsampling : 4:2:0
Bit depth : 8 bits
Scan type : Progressive
Compression mode : Lossy
Bits/(Pixel*Frame) : 0.266
Stream size : 1.26 GiB (92%)
Writing library : XviD 73
Audio
ID : 1
Format : AC-3
Format/Info : Audio Coding 3
Mode extension : CM (complete main)
Format settings, Endianness : Big
Codec ID : 2000
Duration : 1 h 16 min
Bit rate mode : Constant
Bit rate : 192 kb/s
Channel(s) : 2 channels
Channel positions : Front: L R
Sampling rate : 48.0 kHz
Frame rate : 31.250 FPS (1536 spf)
Bit depth : 16 bits
Compression mode : Lossy
Stream size : 105 MiB (7%)
Alignment : Split accross interleaves
Interleave, duration : 42 ms (1.00 video frame)
Interleave, preload duration : 500 ms

Источник: Torrentc.org с [b][color=blue]DVDRip[/color][/b]

[url=viewtopic.php?t=196471]http://Torrentc.org/forum/viewtopic.php?t=196471[/url]

Скриншоты



[jinwg81.com]_torrent-5342170.torrent
Торрент: Зарегистрирован ·  [ 2017-02-14 20:24 ] ·  110541cff51f61b2c7442f6ca859259c9ca6b85b

14 KB

Статус: проверено
Скачан: 0 раз
Размер: 1.37 GB
Оценка: 
(Голосов: 0)
Сказали спасибо: 0  Спасибо
Похожие темы
[Профиль]    [ЛС]
Показать сообщения:    
Ответить на тему

Текущее время: Сегодня 15:03

Часовой пояс: GMT + 7



Вы не можете начинать темы
Вы не можете отвечать на сообщения
Вы не можете редактировать свои сообщения
Вы не можете удалять свои сообщения
Вы не можете голосовать в опросах
Вы не можете прикреплять файлы к сообщениям
Вы можете скачивать файлы