Bambadjan Bamba
Ted Whittall

Освобождение. Фильм пятый. Последний штурм (Юрий Озеров) [1971, военный, BDRip-AVC]

Ответить на тему
Статистика раздачи [Обновить пиров]
Размер:  1.45 GB   |    Зарегистрирован:  1 год   |    Скачан:  0 раз

Полного источника не было: Никогда

 
   
 
 
 
Автор Сообщение

jinwg81.com

Создавать темы 14-Фев-2017 20:25

[Цитировать]

Освобождение. Фильм пятый. Последний штурм- Жанр: военный
Год выхода: 1971
Продолжительность: 01:13:37
Режиссёр: Юрий Озеров
В ролях: Михаил Ульянов, Василий Шукшин, Николай Олялин, Лариса Голубкина, Михаил Ножкин, Владислав Стржельчик, Сергей Никоненко, Всеволод Санаев, Борис Зайденберг, Валерий Носик, Юрий Каморный, Бухути Закариадзе, Иван Переверзев, Анатолий Ромашин, Владимир Заманский, Николай Рыбников, Барбара Брыльска, Лев Прыгунов и др.
Описание: Фильм повествует о последних днях войны: штурм Рейхстага, сражение за каждый метр, за каждый этаж - и, наконец, водружение Знамени победы над Рейхстагом. Главные герои фильма встречаются у входа в Рейхстаг.
Сэмпл: http://sendfile.su/1299346
[img]http://rating.kinopoisk.ru/392541.gif[/img]
Качество видео: BDRip-AVC ([url=viewtopic.php?t=5320993]Освобождение BDRemux 1080p] [Remastered Edition] [GER Transfer][/url])
Формат файла: MKV
Видео: x264, 960x408 (2.35:1) 24 fps, ~2595 kbps, 0,276 bit/pixel
Аудио: 48 kHz, AC3 Dolby Digital, 2/0 (L,R) ch, ~224 kbps
Освобождение. Фильм первый. Огненная дуга
Освобождение. Фильм второй. Прорыв
Освобождение. Фильм третий. Направление главного удара
Освобождение. Фильм четвертый. Битва за Берлин

MediaInfo

General
Unique ID : 197292867371504319163280476292469100672 (0x946D395F2C6030968E549CCFA2961080)
Format : Matroska
Format version : Version 4 / Version 2
File size : 1.45 GiB
Duration : 1h 13mn
Overall bit rate : 2 821 Kbps
Encoded date : UTC 2017-01-15 06:17:57
Writing application : mkvmerge v9.7.1 ('Pandemonium') 64bit
Writing library : libebml v1.3.4 + libmatroska v1.4.5
Video #1
ID : 1
Format : AVC
Format/Info : Advanced Video Codec
Format profile : [email protected]
Format settings, CABAC : Yes
Format settings, ReFrames : 13 frames
Codec ID : V_MPEG4/ISO/AVC
Duration : 1h 13mn
Bit rate : 2 595 Kbps
Width : 960 pixels
Height : 408 pixels
Display aspect ratio : 2.35:1
Frame rate mode : Constant
Frame rate : 24.000 fps
Color space : YUV
Chroma subsampling : 4:2:0
Bit depth : 8 bits
Scan type : Progressive
Bits/(Pixel*Frame) : 0.276
Stream size : 1.33 GiB (92%)
Writing library : x264 core 146 r2538 121396c
Encoding settings : cabac=1 / ref=13 / deblock=1:-3:-2 / analyse=0x3:0x113 / me=umh / subme=10 / psy=1 / psy_rd=1.00:0.00 / mixed_ref=1 / me_range=32 / chroma_me=1 / trellis=2 / 8x8dct=1 / cqm=0 / deadzone=21,11 / fast_pskip=1 / chroma_qp_offset=-2 / threads=6 / lookahead_threads=1 / sliced_threads=0 / nr=0 / decimate=1 / interlaced=0 / bluray_compat=0 / constrained_intra=0 / bframes=10 / b_pyramid=2 / b_adapt=2 / b_bias=0 / direct=1 / weightb=1 / open_gop=0 / weightp=2 / keyint=250 / keyint_min=23 / scenecut=40 / intra_refresh=0 / rc_lookahead=50 / rc=2pass / mbtree=1 / bitrate=2595 / ratetol=1.0 / qcomp=0.60 / qpmin=0 / qpmax=69 / qpstep=4 / cplxblur=20.0 / qblur=0.5 / ip_ratio=1.40 / aq=3:1.00
Language : English
Default : Yes
Forced : No
Audio #2
ID : 2
Format : AC-3
Format/Info : Audio Coding 3
Mode extension : CM (complete main)
Format settings, Endianness : Big
Codec ID : A_AC3
Duration : 1h 13mn
Bit rate mode : Constant
Bit rate : 224 Kbps
Channel(s) : 2 channels
Channel positions : Front: L R
Sampling rate : 48.0 KHz
Frame rate : 31.250 fps (1536 spf)
Compression mode : Lossy
Stream size : 118 MiB (8%)
Language : Russian
Default : Yes
Forced : No

лог

raw [info]: 960x408p 1:1 @ 10000000/416667 fps (cfr)
x264 [info]: using SAR=1/1
x264 [info]: using cpu capabilities: MMX2 SSE2Fast SSSE3 SSE4.2 AVX XOP FMA4 FMA3 LZCNT BMI1
x264 [info]: profile High, level 4.1
x264 [info]: frame I:486 Avg QP:15.92 size: 59393
x264 [info]: frame P:21028 Avg QP:18.82 size: 26945
x264 [info]: frame B:84512 Avg QP:21.42 size: 9914
x264 [info]: consecutive B-frames: 0.8% 1.3% 5.6% 21.9% 15.5% 37.8% 7.2% 3.9% 3.0% 1.5% 1.5%
x264 [info]: mb I I16..4: 2.5% 81.7% 15.9%
x264 [info]: mb P I16..4: 0.7% 14.5% 1.6% P16..4: 38.4% 28.8% 14.7% 0.0% 0.0% skip: 1.3%
x264 [info]: mb B I16..4: 0.1% 2.1% 0.2% B16..8: 40.5% 13.5% 4.1% direct:10.6% skip:28.9% L0:44.8% L1:39.6% BI:15.6%
x264 [info]: 8x8 transform intra:86.9% inter:66.1%
x264 [info]: coded y,uvDC,uvAC intra: 91.8% 50.0% 25.7% inter: 40.3% 22.3% 1.4%
x264 [info]: i16 v,h,dc,p: 30% 18% 17% 35%
x264 [info]: i8 v,h,dc,ddl,ddr,vr,hd,vl,hu: 13% 9% 9% 9% 13% 11% 13% 10% 13%
x264 [info]: i4 v,h,dc,ddl,ddr,vr,hd,vl,hu: 12% 9% 4% 8% 14% 12% 15% 10% 15%
x264 [info]: i8c dc,h,v,p: 61% 18% 13% 8%
x264 [info]: Weighted P-Frames: Y:30.6% UV:17.2%
x264 [info]: ref P L0: 35.3% 13.3% 15.4% 8.0% 6.2% 4.7% 4.0% 2.6% 2.4% 2.1% 1.9% 1.8% 1.7% 0.7% 0.0%
x264 [info]: ref B L0: 68.2% 11.5% 6.0% 3.6% 2.5% 2.2% 1.8% 1.2% 1.0% 1.0% 0.6% 0.3%
x264 [info]: ref B L1: 93.3% 6.7%
x264 [info]: kb/s:2595.62
x264 [total]: encoded 106026 frames, 8.88 fps, 2595.63 kb/s

Скриншоты




[jinwg81.com]_torrent-5341969.torrent
Торрент: Зарегистрирован ·  [ 2017-02-14 20:24 ] ·  5c4a38c3ec88709a5728e859192489eb968c3e6b

15 KB

Статус: проверено
Скачан: 0 раз
Размер: 1.45 GB
Оценка: 
(Голосов: 0)
Сказали спасибо: 0  Спасибо
Похожие темы
[Профиль]    [ЛС]
Показать сообщения:    
Ответить на тему

Текущее время: Сегодня 15:02

Часовой пояс: GMT + 7



Вы не можете начинать темы
Вы не можете отвечать на сообщения
Вы не можете редактировать свои сообщения
Вы не можете удалять свои сообщения
Вы не можете голосовать в опросах
Вы не можете прикреплять файлы к сообщениям
Вы можете скачивать файлы