To What Extent Does an Accounting or Business Degree Equip Graduates with the Knowledge and Skills Required by Prospective Employers
Effect of Business Acquisition to Get Competitive Advantage Based on the Case Study: Acquisition of Somerfield by Co-Operative Group

Освобождение. Фильм четвертый. Битва за Берлин (Юрий Озеров) [1970, военный, BDRip-AVC]

Ответить на тему
Статистика раздачи [Обновить пиров]
Размер:  1.45 GB   |    Зарегистрирован:  1 год   |    Скачан:  0 раз

Полного источника не было: Никогда

 
   
 
 
 
Автор Сообщение

jinwg81.com

Создавать темы 14-Фев-2017 20:25

[Цитировать]

Освобождение. Фильм четвертый. Битва за Берлин- Жанр: военный
Год выхода: 1970
Продолжительность: 01:25:34
Режиссёр: Юрий Озеров
В ролях: Михаил Ульянов, Василий Шукшин, Николай Олялин, Лариса Голубкина, Михаил Ножкин, Владислав Стржельчик, Сергей Никоненко, Всеволод Санаев, Борис Зайденберг, Валерий Носик, Юрий Каморный, Бухути Закариадзе, Иван Переверзев, Анатолий Ромашин, Владимир Заманский, Николай Рыбников, Барбара Брыльска, Лев Прыгунов и др.
Описание: 1945 год, последние месяцы войны. Висло-Одерская операция. Три фронта под командованием Конева, Жукова и Рокоссовского устремились к столице Германии. К Берлину идут, не встречая уже сопротивления немцев, англо-американские войска. "Опередить русских" – предлагает Черчиль. Начинаются тайные переговоры с эмиссарами Гитлера. Судьба Берлина решится на полях сражений
Сэмпл: http://sendfile.su/1299342
[img]http://rating.kinopoisk.ru/392540.gif[/img]
Качество видео: BDRip-AVC ([url=viewtopic.php?t=5320993]Освобождение BDRemux 1080p] [Remastered Edition] [GER Transfer][/url])
Формат файла: MKV
Видео: x264, 1012x430 (2.35:1) 24 fps, ~2200 kbps, 0,211 bit/pixel
Аудио: 48 kHz, AC3 Dolby Digital, 2/0 (L,R) ch, ~224 kbps
Освобождение. Фильм первый. Огненная дуга
Освобождение. Фильм второй. Прорыв
Освобождение. Фильм третий. Направление главного удара
Освобождение. Фильм пятый. Последний штурм

MediaInfo

General
Unique ID : 186130071538524279119533584210023191087 (0x8C07590B904F601E82B1BB3C5C0C922F)
Format : Matroska
Format version : Version 4 / Version 2
File size : 1.45 GiB
Duration : 1h 26mn
Overall bit rate : 2 412 Kbps
Encoded date : UTC 2017-01-14 07:32:23
Writing application : mkvmerge v9.7.1 ('Pandemonium') 64bit
Writing library : libebml v1.3.4 + libmatroska v1.4.5
Video #1
ID : 1
Format : AVC
Format/Info : Advanced Video Codec
Format profile : [email protected]
Format settings, CABAC : Yes
Format settings, ReFrames : 12 frames
Codec ID : V_MPEG4/ISO/AVC
Duration : 1h 25mn
Bit rate : 2 200 Kbps
Width : 1 012 pixels
Height : 430 pixels
Display aspect ratio : 2.35:1
Frame rate mode : Constant
Frame rate : 24.000 fps
Color space : YUV
Chroma subsampling : 4:2:0
Bit depth : 8 bits
Scan type : Progressive
Bits/(Pixel*Frame) : 0.211
Stream size : 1.32 GiB (91%)
Writing library : x264 core 146 r2538 121396c
Encoding settings : cabac=1 / ref=12 / deblock=1:-3:-2 / analyse=0x3:0x113 / me=umh / subme=10 / psy=1 / psy_rd=1.00:0.00 / mixed_ref=1 / me_range=32 / chroma_me=1 / trellis=2 / 8x8dct=1 / cqm=0 / deadzone=21,11 / fast_pskip=1 / chroma_qp_offset=-2 / threads=6 / lookahead_threads=1 / sliced_threads=0 / nr=0 / decimate=1 / interlaced=0 / bluray_compat=0 / constrained_intra=0 / bframes=13 / b_pyramid=2 / b_adapt=2 / b_bias=0 / direct=1 / weightb=1 / open_gop=0 / weightp=2 / keyint=250 / keyint_min=23 / scenecut=40 / intra_refresh=0 / rc_lookahead=50 / rc=2pass / mbtree=1 / bitrate=2200 / ratetol=1.0 / qcomp=0.60 / qpmin=0 / qpmax=69 / qpstep=4 / cplxblur=20.0 / qblur=0.5 / ip_ratio=1.40 / aq=3:1.00
Language : Russian
Default : Yes
Forced : No
Audio #2
ID : 2
Format : AC-3
Format/Info : Audio Coding 3
Mode extension : CM (complete main)
Format settings, Endianness : Big
Codec ID : A_AC3
Duration : 1h 26mn
Bit rate mode : Constant
Bit rate : 224 Kbps
Channel(s) : 2 channels
Channel positions : Front: L R
Sampling rate : 48.0 KHz
Frame rate : 31.250 fps (1536 spf)
Compression mode : Lossy
Stream size : 138 MiB (9%)
Language : Russian
Default : Yes
Forced : No

лог

raw [info]: 1012x430p 1:1 @ 10000000/416667 fps (cfr)
x264 [info]: using SAR=1/1
x264 [info]: using cpu capabilities: MMX2 SSE2Fast SSSE3 SSE4.2 AVX XOP FMA4 FMA3 LZCNT BMI1
x264 [info]: profile High, level 4.1
x264 [info]: frame I:571 Avg QP:16.22 size: 58507
x264 [info]: frame P:23774 Avg QP:19.21 size: 24308
x264 [info]: frame B:98875 Avg QP:22.37 size: 8098
x264 [info]: consecutive B-frames: 0.9% 1.6% 5.4% 16.3% 15.9% 38.4% 7.9% 4.6% 3.5% 1.8% 1.2% 1.9% 0.4% 0.3%
x264 [info]: mb I I16..4: 3.2% 82.3% 14.4%
x264 [info]: mb P I16..4: 0.9% 10.2% 1.0% P16..4: 42.6% 28.6% 13.9% 0.0% 0.0% skip: 2.8%
x264 [info]: mb B I16..4: 0.1% 1.2% 0.1% B16..8: 41.6% 11.0% 2.8% direct: 8.9% skip:34.5% L0:46.4% L1:41.3% BI:12.3%
x264 [info]: 8x8 transform intra:84.8% inter:68.3%
x264 [info]: coded y,uvDC,uvAC intra: 86.6% 50.9% 24.5% inter: 34.4% 20.6% 1.1%
x264 [info]: i16 v,h,dc,p: 34% 21% 11% 35%
x264 [info]: i8 v,h,dc,ddl,ddr,vr,hd,vl,hu: 8% 12% 8% 9% 14% 12% 14% 10% 14%
x264 [info]: i4 v,h,dc,ddl,ddr,vr,hd,vl,hu: 7% 21% 4% 8% 13% 12% 13% 9% 13%
x264 [info]: i8c dc,h,v,p: 57% 21% 13% 9%
x264 [info]: Weighted P-Frames: Y:33.5% UV:19.2%
x264 [info]: ref P L0: 35.9% 12.9% 15.4% 8.0% 6.2% 4.9% 4.2% 2.7% 2.5% 2.3% 2.1% 2.1% 0.8% 0.0%
x264 [info]: ref B L0: 66.2% 12.2% 6.6% 3.9% 2.8% 2.5% 2.0% 1.4% 1.2% 0.8% 0.4%
x264 [info]: ref B L1: 92.8% 7.2%
x264 [info]: kb/s:2200.20
x264 [total]: encoded 123220 frames, 9.45 fps, 2200.20 kb/s

Скриншоты




[jinwg81.com]_torrent-5341958.torrent
Торрент: Зарегистрирован ·  [ 2017-02-14 20:24 ] ·  52d6a767fdb5fc07dadce6f658e43672d7df4b4e

15 KB

Статус: проверено
Скачан: 0 раз
Размер: 1.45 GB
Оценка: 
(Голосов: 0)
Сказали спасибо: 0  Спасибо
Похожие темы
[Профиль]    [ЛС]
Показать сообщения:    
Ответить на тему

Текущее время: Сегодня 22:13

Часовой пояс: GMT + 7



Вы не можете начинать темы
Вы не можете отвечать на сообщения
Вы не можете редактировать свои сообщения
Вы не можете удалять свои сообщения
Вы не можете голосовать в опросах
Вы не можете прикреплять файлы к сообщениям
Вы можете скачивать файлы