Урок жизни (Юлий Райзман) [1955, социальная драма, SATRip]

Ответить на тему
Статистика раздачи [Обновить пиров]
Размер:  1.46 GB   |    Зарегистрирован:  1 год   |    Скачан:  0 раз

Полного источника не было: Никогда

 
   
 
 
 
Автор Сообщение

jinwg81.com

Создавать темы 14-Фев-2017 20:25

[Цитировать]

Урок жизни
Год выхода: 1955
Жанр: социальная драма
Продолжительность: 01:45:35.080 (158377 frames)
Субтитры: нет
Режиссер: Юлий Райзман
В ролях: Валентина Калинина, Иван Переверзев, Ольга Аросева, Георгий Куликов, Маргарита Юрьева (Юрге), Виктор Авдюшко, Евгений Весник, Ирина Акташева, Ф. Шиманский
Описание: Наташа бросает учебу в пединституте и едет с Сергеем на стройку. Успехи мужа делают его всё более самоуверенным и грубым. Она же чувствует себя одинокой и чужой в собственной семье.
Качество: SATRip
Формат файла: AVI
Видео кодек: XviD
Аудио кодек: АС3
Видео: 704x528 (1.33:1), 25 fps, XviD build 73 ~1771 kbps avg, 0.19 bit/pixel
Аудио: 48 kHz, AC3 Dolby Digital, 2/0 (L,R) ch, ~192.00 kbps avg

Скриншоты

Медиаинфо

F:\004 Мои раздачи\Урок жизни 1,46\urok_zhizni_1.46_[torrentc]_by_bm11.avi
General
Complete name : F:\004 Мои раздачи\Урок жизни 1,46\urok_zhizni_1.46_[torrentc]_by_bm11.avi
Format : AVI
Format/Info : Audio Video Interleave
File size : 1.46 GiB
Duration : 1h 45mn
Overall bit rate : 1 974 Kbps
Director : bm11
Writing application : VirtualDubMod 1.5.10.3 | www.virtualdub-fr.org || (build 2550/release)
Video
Format : MPEG-4 Visual
Format profile : Streaming [email protected]
Format settings, BVOP : Yes
Format settings, QPel : No
Format settings, GMC : No warppoints
Format settings, Matrix : Custom
Codec ID : XVID
Codec ID/Hint : XviD
Duration : 1h 45mn
Bit rate : 1 772 Kbps
Width : 704 pixels
Height : 528 pixels
Display aspect ratio : 4/3
Frame rate : 25.000 fps
Resolution : 24 bits
Colorimetry : 4:2:0
Scan type : Progressive
Bits/(Pixel*Frame) : 0.191
Stream size : 1.31 GiB (90%)
Writing library : XviD 73
Audio
Format : AC-3
Format/Info : Audio Coding 3
Codec ID : 2000
Duration : 1h 45mn
Bit rate mode : Constant
Bit rate : 192 Kbps
Channel(s) : 2 channels
Channel positions : L R
Sampling rate : 48.0 KHz
Stream size : 145 MiB (10%)
Alignment : Split accross interleaves
Interleave, duration : 40 ms (1.00 video frame)
Interleave, preload duration : 500 ms

Источник: Torrentc.org

[url=viewtopic.php?t=4102950]http://Torrentc.org/forum/viewtopic.php?t=4102950[/url]

Источник: Torrentc.org

[url=viewtopic.php?t=888944]http://Torrentc.org/forum/viewtopic.php?t=888944[/url]


[jinwg81.com]_torrent-5338386.torrent
Торрент: Зарегистрирован ·  [ 2017-02-14 20:24 ] ·  97cd03eeacca949cd8711844206c03bc44982aa8

15 KB

Статус: проверено
Скачан: 0 раз
Размер: 1.46 GB
Оценка: 
(Голосов: 0)
Сказали спасибо: 0  Спасибо
Похожие темы
[Профиль]    [ЛС]
Показать сообщения:    
Ответить на тему

Текущее время: Сегодня 16:47

Часовой пояс: GMT + 7



Вы не можете начинать темы
Вы не можете отвечать на сообщения
Вы не можете редактировать свои сообщения
Вы не можете удалять свои сообщения
Вы не можете голосовать в опросах
Вы не можете прикреплять файлы к сообщениям
Вы можете скачивать файлы