Анекдоты (Виктор Титов) [1990, комедия, VHSRip > DVD]

Ответить на тему
Статистика раздачи [Обновить пиров]
Размер:  4.34 GB   |    Зарегистрирован:  1 год   |    Скачан:  0 раз

Полного источника не было: Никогда

 
   
 
 
 
Автор Сообщение

jinwg81.com

Создавать темы 14-Фев-2017 20:25

[Цитировать]

Анекдоты- Страна: СССР
Жанр: комедия
Год выхода: 1990
Продолжительность: 01:13:13-Cубтитры: нет-Режиссер: Виктор Титов
В ролях: Александр Абдулов, Армен Джигарханян, Нина Усатова, Яков Степанов, Андрей Васильев, Борис Соколов, Евгений Филатов, Вадим Лобанов, Михаил Храбров, Лев Лемке, Илья Олейников, Анатолий Равикович, Виктор Бычков, Юрий Стоянов, Николай Фоменко, Михаил Данилов, Юрий Лазарев, Сергей Паршин, Валерий Кравченко, Константин Демидов, Виктор Степанов, Ольга Волкова, Маргарита Велома, Виктор Михайлов, Гали Абайдулов, Артур Ваха, Виктор Семеновский, Валерий Цикалов, Евгений Тиличеев, Майя Блинова, Андрей Ургант, Сергей Степанченко, Нюяна Куо- | Релиз группы: : -Описание: Василий Кутузов, однофамилец известного полководца, попадает в психбольницу из-за таланта придумывать анекдоты. В его роду все имели этот дар, и многие из-за этого пострадали. Не нравилось властям, что Кутузовы народ беспокоят. Да только как народу этому, да в стране такой без анекдотов прожить? Соседи Василия по палате - все люди известные, оставившие след в истории. Вот он и веселит их, пока врачи не решили излечить его от этого "недуга"...-Доп. информация: Собственная оцифровка с видеокассеты. В промежутке 00:40:34-00:41:12 присутствует брак по изображению и звуку.-Семпл: http://sendfile.su/1296873-Тип релиза: VHSRip
Формат файла: DVD-Video
Видео: 720x576 (4:3) @ 768x576, 25.000 fps, MPEG-2 Video, ~8089 Kbps, 0.780 bits/pixel
Аудио: Русский, 48.0 KHz, AC3, 1 ch, 192 Kbps

DVDInfo

Title: AnekdotySize: 4.34 Gb ( 4 547 054,00 KBytes ) - DVD-5Enabled regions: 1, 2, 3, 4, 5, 6, 7, 8
VTS_01 : Play Length: 01:13:13 Video: PAL 4:3 (720x576) VBR Audio: Russian, AC3, 1/0 (C) ch, 192 kbps, Delay 0 mSec

MediaInfo

GeneralComplete name : W:\VHS Capture\Anekdoty\VIDEO_TS\VTS_01_1.VOBFormat : MPEG-PSFile size : 1 024 MiBDuration : 16 min 56 sOverall bit rate mode : VariableOverall bit rate : 8 449 kb/s
VideoID : 224 (0xE0)Format : MPEG VideoFormat version : Version 2Format profile : [email protected] settings, BVOP : YesFormat settings, Matrix : CustomFormat settings, GOP : VariableFormat settings, picture structure : FrameDuration : 16 min 56 sBit rate mode : VariableBit rate : 8 089 kb/sMaximum bit rate : 9 600 kb/sWidth : 720 pixelsHeight : 576 pixelsDisplay aspect ratio : 4:3Frame rate : 25.000 FPSStandard : PALColor space : YUVChroma subsampling : 4:2:0Bit depth : 8 bitsScan type : InterlacedScan order : Top Field FirstCompression mode : LossyBits/(Pixel*Frame) : 0.780Time code of first frame : 00:00:00:00Time code source : Group of pictures headerGOP, Open/Closed : OpenGOP, Open/Closed of first frame : ClosedStream size : 980 MiB (96%)
AudioID : 189 (0xBD)-128 (0x80)Format : AC-3Format/Info : Audio Coding 3Mode extension : CM (complete main)Format settings, Endianness : BigMuxing mode : DVD-VideoDuration : 16 min 56 sBit rate mode : ConstantBit rate : 192 kb/sChannel(s) : 1 channelChannel positions : Front: CSampling rate : 48.0 kHzFrame rate : 31.250 FPS (1536 spf)Bit depth : 16 bitsCompression mode : LossyStream size : 23.3 MiB (2%)
Menu


[jinwg81.com]_torrent-5337420.torrent
Торрент: Зарегистрирован ·  [ 2017-02-14 20:24 ] ·  10bee1a1f3fb651700f7e1c0887611df3528f1f4

23 KB

Статус: проверено
Скачан: 0 раз
Размер: 4.34 GB
Оценка: 
(Голосов: 0)
Сказали спасибо: 0  Спасибо
Похожие темы
[Профиль]    [ЛС]
Показать сообщения:    
Ответить на тему

Текущее время: Сегодня 16:28

Часовой пояс: GMT + 7



Вы не можете начинать темы
Вы не можете отвечать на сообщения
Вы не можете редактировать свои сообщения
Вы не можете удалять свои сообщения
Вы не можете голосовать в опросах
Вы не можете прикреплять файлы к сообщениям
Вы можете скачивать файлы