Little Folks (Bookshelf)
London Medical Gazette

Калина красная (Василий Шукшин) [1973, драма, WEB-DLRip-AVC]

Ответить на тему
Статистика раздачи [Обновить пиров]
Размер:  2.6 GB   |    Зарегистрирован:  1 год   |    Скачан:  0 раз

Полного источника не было: Никогда

 
   
 
 
 
Автор Сообщение

jinwg81.com

Создавать темы 14-Фев-2017 20:25

[Цитировать]

Калина красная- Жанр: драма
Год выхода: 1973
Продолжительность: 01:41:53
Cубтитры: английские-Режиссёр: Василий Шукшин-В ролях:
Василий Шукшин, Лидия Федосеева-Шукшина, Алексей Ванин, Георгий Бурков, Мария Виноградова, Наталия Гвоздикова, Лев Дуров, Николай Погодин, Жанна Прохоренко, Иван Рыжов, Татьяна Гаврилова, Мария Скворцова, Алексей Бахарь, Олег Корчиков, Валентина Ананьина
Описание:
Выйдя из тюрьмы, Егор Прокудин решает податься в деревню, где живёт синеглазая незнакомка Люба, с которой он переписывался. Надо немного переждать и осмотреться. Но жизнь в деревне меняет планы Егора, и он решает порвать с прошлым. Теперь у него есть друзья, работа, любимая женщина. Однако бывшие дружки Егора не собираются мириться с его успокоенностью.-Сэмпл | Кинопоиск-Качество видео: WEB-DLRip-AVC
Формат файла: MKV
Видео: x264: ([email protected]); 866x648 25.000 fps; Display aspect ratio: 1.336:1; 2973 Kbps
Аудио 1: AC-3; 16 bit 48 Khz; 5.1ch 448 Kbps; CBR | [url=viewtopic.php?t=134225]DVD5[/url], спасибо satero
Аудио 2: AC-3; 16 bit 48 Khz; Mono 224 Kbps; CBR | --"--
Формат файла субтитров: softsub (SRT)

Источник: Torrentc.org

* WEB-DL 1080p.

MediaInfo

avs [info]: 866x648p 1:1 @ 25/1 fps (cfr)
x264 [info]: using SAR=1/1
x264 [info]: profile High, level 4.1
x264 [info]: frame I:714 Avg QP:17.18 size: 72743
x264 [info]: frame P:32651 Avg QP:18.73 size: 30708
x264 [info]: frame B:119471 Avg QP:21.01 size: 10187
x264 [info]: consecutive B-frames: 0.9% 1.7% 4.0% 33.5% 19.2% 32.8% 4.7% 2.4% 0.5% 0.2%
x264 [info]: mb I I16..4: 3.3% 82.2% 14.5%
x264 [info]: mb P I16..4: 0.3% 13.4% 1.5% P16..4: 36.5% 31.9% 15.4% 0.0% 0.0% skip: 1.1%
x264 [info]: mb B I16..4: 0.1% 1.5% 0.2% B16..8: 42.6% 12.6% 3.4% direct: 8.5% skip:31.2% L0:40.1% L1:44.7% BI:15.3%
x264 [info]: 8x8 transform intra:87.0% inter:63.4%
x264 [info]: coded y,uvDC,uvAC intra: 94.6% 70.5% 40.7% inter: 33.3% 16.4% 1.8%
x264 [info]: i16 v,h,dc,p: 7% 44% 12% 36%
x264 [info]: i8 v,h,dc,ddl,ddr,vr,hd,vl,hu: 11% 14% 8% 8% 12% 11% 12% 10% 13%
x264 [info]: i4 v,h,dc,ddl,ddr,vr,hd,vl,hu: 10% 26% 2% 6% 11% 11% 12% 9% 12%
x264 [info]: i8c dc,h,v,p: 36% 33% 18% 13%
x264 [info]: Weighted P-Frames: Y:22.0% UV:7.1%
x264 [info]: ref P L0: 47.0% 12.9% 15.4% 5.9% 4.6% 3.2% 2.8% 1.5% 1.4% 1.2% 1.1% 1.0% 1.0% 0.9% 0.2% 0.0%
x264 [info]: ref B L0: 81.2% 8.0% 3.5% 1.9% 1.3% 1.1% 0.8% 0.5% 0.4% 0.4% 0.4% 0.3% 0.2%
x264 [info]: ref B L1: 96.6% 3.4%
x264 [info]: kb/s:2972.63--General
Unique ID : 204445655862636287614433866526920141986 (0x99CECD126FD4FA5F9F7511F3B439ECA2)
Complete name : Калина красная.1973.WEB-DLRip.mkv
Format : Matroska
Format version : Version 2
File size : 2.60 GiB
Duration : 1h 41mn
Overall bit rate : 3 647 Kbps
Movie name : «Калина красная»
Encoded date : UTC 2016-12-23 20:51:32
Writing application : mkvmerge v7.8.0 ('River Man') 32bit built on Mar 27 2015 16:18:02
Writing library : libebml v1.3.1 + libmatroska v1.4.2
Comment : WEB-DLRip-AVC
Originally released : December 21st 2016
Encoded by : george$t®
Video
ID : 1
Format : AVC
Format/Info : Advanced Video Codec
Format profile : [email protected]
Format settings, CABAC : Yes
Format settings, ReFrames : 14 frames
Codec ID : V_MPEG4/ISO/AVC
Duration : 1h 41mn
Bit rate : 2 902 Kbps
Width : 866 pixels
Height : 648 pixels
Display aspect ratio : 4:3
Frame rate mode : Constant
Frame rate : 25.000 fps
Color space : YUV
Chroma subsampling : 4:2:0
Bit depth : 8 bits
Scan type : Progressive
Bits/(Pixel*Frame) : 0.207
Stream size : 2.07 GiB (80%)
Title : Калина красная.1973
Writing library : x264 core 148 r2721kMod 72d53ab
Encoding settings : cabac=1 / ref=14 / deblock=1:-1:-1 / analyse=0x3:0x113 / me=umh / subme=10 / psy=1 / fade_compensate=0.00 / psy_rd=1.05:0.10 / mixed_ref=1 / me_range=32 / chroma_me=1 / trellis=2 / 8x8dct=1 / cqm=0 / deadzone=21,11 / fast_pskip=1 / chroma_qp_offset=-3 / threads=12 / lookahead_threads=2 / sliced_threads=0 / nr=0 / decimate=1 / interlaced=0 / bluray_compat=0 / constrained_intra=0 / fgo=0 / bframes=9 / b_pyramid=2 / b_adapt=2 / b_bias=0 / direct=1 / weightb=1 / open_gop=0 / weightp=2 / keyint=250 / keyint_min=25 / scenecut=40 / intra_refresh=0 / rc_lookahead=60 / rc=crf / mbtree=0 / crf=18.1000 / qcomp=0.65 / qpmin=0 / qpmax=69 / qpstep=4 / vbv_maxrate=62500 / vbv_bufsize=78125 / crf_max=0.0 / nal_hrd=none / filler=0 / ip_ratio=1.40 / pb_ratio=1.30 / aq=3:0.60
Language : Russian
Default : Yes
Forced : No
Color primaries : BT.709
Transfer characteristics : BT.709
Matrix coefficients : BT.709
Color range : Limited
Audio #1
ID : 2
Format : AC-3
Format/Info : Audio Coding 3
Mode extension : CM (complete main)
Format settings, Endianness : Big
Codec ID : A_AC3
Duration : 1h 41mn
Bit rate mode : Constant
Bit rate : 448 Kbps
Channel(s) : 6 channels
Channel positions : Front: L C R, Side: L R, LFE
Sampling rate : 48.0 KHz
Bit depth : 16 bits
Compression mode : Lossy
Stream size : 326 MiB (12%)
Title : AC-3; 16 bit 48 Khz; 5.1ch 448 Kbps; CBR | DVD5 "КП"
Language : Russian
Default : Yes
Forced : No
Audio #2
ID : 3
Format : AC-3
Format/Info : Audio Coding 3
Mode extension : CM (complete main)
Format settings, Endianness : Big
Codec ID : A_AC3
Duration : 1h 41mn
Bit rate mode : Constant
Bit rate : 224 Kbps
Channel(s) : 1 channel
Channel positions : Front: C
Sampling rate : 48.0 KHz
Bit depth : 16 bits
Compression mode : Lossy
Stream size : 163 MiB (6%)
Title : AC-3; 16 bit 48 Khz; Mono 224 Kbps; CBR | DVD5 "КП"
Language : Russian
Default : No
Forced : No
Text
ID : 4
Format : UTF-8
Codec ID : S_TEXT/UTF8
Codec ID/Info : UTF-8 Plain Text
Title : Субтитры английские
Language : English
Default : No
Forced : No
Menu
00:00:00.000 : ru:"Вечерний звон...". Титры
00:04:12.640 : ru:На свободе
00:11:28.960 : ru:Воровская "малина"
00:16:18.920 : ru:Люба Байкалова
00:25:05.120 : ru:Старики родители
00:34:57.280 : ru:В баньке
00:40:51.920 : ru:Вечернее застолье
00:44:16.120 : ru:В ночь. Не спится
00:46:39.400 : ru:"Нужен праздник!"
01:00:36.360 : ru:Французский коньяк
01:03:46.320 : ru:Работа
01:12:55.920 : ru:Мать
01:20:59.280 : ru:Бывший муж
01:24:31.040 : ru:"Березки-невестушки"
01:26:09.920 : ru:Предчувствие беды
01:31:58.800 : ru:Выстрел

Скриншоты

vs. hdtv:vs. hdtvrip 720p:vs. dvdvrip-avc:
[url=viewtopic.php?t=4049528]http://Torrentc.org/forum/viewtopic.php?t=4049528[/url]


[jinwg81.com]_torrent-5330813.torrent
Торрент: Зарегистрирован ·  [ 2017-02-14 20:24 ] ·  4d56bd9e057b2c11fd7dac1d7c30cf1cf23c5118

13 KB

Статус: проверено
Скачан: 0 раз
Размер: 2.6 GB
Оценка: 
(Голосов: 0)
Сказали спасибо: 0  Спасибо
Похожие темы
[Профиль]    [ЛС]
Показать сообщения:    
Ответить на тему

Текущее время: Сегодня 15:18

Часовой пояс: GMT + 7



Вы не можете начинать темы
Вы не можете отвечать на сообщения
Вы не можете редактировать свои сообщения
Вы не можете удалять свои сообщения
Вы не можете голосовать в опросах
Вы не можете прикреплять файлы к сообщениям
Вы можете скачивать файлы